Ошибка

Принц Страйда / Prince of Stride: Alternative (TV) [1-12 из 12] [2016] [Приключения, спорт, сёдзе] [HDTV720p] [Любительский]

Ответить на тему
 
Автор Сообщение

Chel90RUS

Пол: Пол:Муж

Стаж: 5 лет 5 месяцев

Сообщений: 413

Россия
Рейтинг

post 27-Мар-2016 17:33 0[+]

[Цитировать] 

pic="http://static2.anidub.com/tracker/poster/5879c8ecee.jpg"
Принц Страйда
プリンス・オブ・ストライド オルタナティブ / Prince of Stride: Alternative

Год выпуска: 2016
Жанр: Приключения, спорт, сёдзе
Страна: Япония
Тип: HDTV
Продолжительность: 12 серий ~ 25 мин
Дата выпуска: c 05.01.2016 по 22.03.2016
Режиссер: Исидзука Ацуко
Автор оригинала / Сценарист: Кисимото Таку
Озвучено: Ancord, Kiara_Laine
Перевод: FooBoo, YakuSub Studio
Тайминг и работа со звуком: Sakuragi_R, Sheeze
Студия: Madhouse Studios
Аудио: AAC 48000Hz stereo 192kbps [A: English [eng] (aac lc, 48000 Hz, stereo, 192 kb/s)]
Видео: MPEG4 Video (H264) 1280x720 23.976fps 2235kbps [V: Alias Data Handler [eng] (h264 main L3.2, yuv420p, 1280x720, 2235 kb/s)]

General
Complete name : \[AniDub]_Prince_of_Stride_-_Alternative_[01]_[720p_x264_Aac]_[Ancord_&_Kiara_Laine].mp4
Format : MPEG-4
Format profile : Base Media
Codec ID : isom
File size : 422 MiB
Duration : 24mn 15s
Overall bit rate mode : Variable
Overall bit rate : 2 431 Kbps
Encoded date : UTC 2016-01-06 21:10:16
Tagged date : UTC 2016-01-06 21:10:16
Writing application : Yamb 2.1.0.0

Video
ID : 1
Format : AVC
Format/Info : Advanced Video Codec
Format profile : Main@L3.2
Format settings, CABAC : Yes
Format settings, ReFrames : 3 frames
Codec ID : avc1
Codec ID/Info : Advanced Video Coding
Duration : 24mn 15s
Bit rate mode : Variable
Bit rate : 2 236 Kbps
Maximum bit rate : 18.1 Mbps
Width : 1 280 pixels
Height : 720 pixels
Display aspect ratio : 16:9
Frame rate mode : Variable
Frame rate : 23.976 fps
Minimum frame rate : 23.976 fps
Maximum frame rate : 23.988 fps
Standard : NTSC
Color space : YUV
Chroma subsampling : 4:2:0
Bit depth : 8 bits
Scan type : Progressive
Bits/(Pixel*Frame) : 0.101
Stream size : 388 MiB (92%)
Language : English
Encoded date : UTC 2016-01-06 15:08:39
Tagged date : UTC 2016-01-06 21:10:17
Color range : Limited

Audio
ID : 2
Format : AAC
Format/Info : Advanced Audio Codec
Format profile : LC
Codec ID : 40
Duration : 24mn 15s
Bit rate mode : Variable
Bit rate : 192 Kbps
Maximum bit rate : 196 Kbps
Channel(s) : 2 channels
Channel positions : Front: L R
Sampling rate : 48.0 KHz
Compression mode : Lossy
Stream size : 33.3 MiB (8%)
Language : English
Encoded date : UTC 2016-01-06 21:10:17
Tagged date : UTC 2016-01-06 21:10:17


Описание:Страйд — экстремальный вид спорта, правила которого максимально просты: шесть игроков из одной команды должны передавать эстафету друг другу из города в город. Команды из множества школ по всей Японии соревнуются за главный приз — победу в конкурсе под названием «Конец лета».
info [Профиль]  [ЛС] 

Bule22

Пол: Пол:Муж

Стаж: 6 лет 6 месяцев

Сообщений: 101

СССР
Рейтинг

post 27-Мар-2016 20:54 (спустя 3 часа) [-]0[+]

[Цитировать] 

Скажите хоть, как оно? С чем сравнить можно?
info [Профиль]  [ЛС] 

DeArimasu

Пол: Пол:Муж

Стаж: 7 лет 5 месяцев

Сообщений: 108

Россия
Рейтинг

post 27-Мар-2016 22:27 (спустя 1 час 32 минуты) [-]0[+]

[Цитировать] 

Bule22 писал(а):

Скажите хоть, как оно? С чем сравнить можно?
Ну в общем то с любым сёдзе.
info [Профиль]  [ЛС] 
Показать сообщения:    
Ответить на тему

Текущее время: 03-Дек 15:42

Часовой пояс: GMT + 4



Вы не можете начинать темы
Вы не можете отвечать на сообщения
Вы не можете редактировать свои сообщения
Вы не можете удалять свои сообщения
Вы не можете голосовать в опросах
Вы не можете прикреплять файлы к сообщениям
Вы не можете скачивать файлы