Ошибка

Врата: там бьются наши воины / Gate: Jieitai Kanochi nite, Kaku Tatakaeri [TV-1] [1-12 из 12] [2015] [приключения, фэнтези] [BDRip] [1080p] [Субтитры (JAP)]

Ответить на тему
 
Автор Сообщение

anoningen

Стаж: 4 года 2 месяца

Сообщений: 468

Самоа
Рейтинг

post 26-Мар-2016 22:26 0[+]

[Цитировать] 

Врата: там бьются наши воины
Gate: Jieitai Kanochi nite, Kaku Tatakaeri | Gate 自衛隊 彼の地にて、斯く戦えり

Год выпуска:
2015 г.
Тип: TV
Жанр: приключения, фэнтези
Режиссер: Кёгоку Такахико
Автор оригинала: Янай Такуми
Студия:
Продолжительность: 12 эп. по 25 мин
Русские субтитры: ASS, внешним файлом

Перевод: kuro
Редактор: antibillotic
Оформитель: ximik

Описание: Однажды в Японии, в квартале Гиндза открываются магические врата через которые в страну проникают войска вторжения из расположенной в параллельном мире Империи. В мире по ту сторону врат обитают различные сказочные существа, такие как эльфы и драконы и некоторые из них могут быть чрезвычайно опасны. Однако, в целом развитие Империи находится на уровне средневековья, поэтому Японии не только удается отразить вторжение, но и захватить врата. Теперь все страны заинтересованы в том чтобы воспользоваться вратами и наложить руки на ресурсы мира еще не тронутого современной цивилизацией. Однако, Япония старается удержать монополию на использование врат. После захвата врат создается несколько отрядов для изучения параллельного мира и установления дружеских отношений с местным населением. Лидером одного из этих отрядов становится главный персонаж, Юдзи Итами.

Автор рипа: GS
Качество: BDRip
Формат видео: MPEG-4
Видео: AVC, 10 бит, 1920x1080; 23.976 кадра/сек; 4616 Кбит/сек, (16:9)
Аудио: FLAC, 48 КГц, 1478 Кбит/сек, 2 канала
Общее
Уникальный идентификатор : 249326523671481644175439483588404921524 (0xBB928AB28BA5241B90C8438E945944B4)
Полное имя : G:\Anime\[GS] Gate - Jieitai Kanochi nite, Kaku Tatakaeri (BD 1080p 10bit FLAC)\[GS] Gate - Jieitai Kanochi nite, Kaku Tatakaeri - 02 (BD 1080p 10bit FLAC) [5AC69143].mkv
Формат : Matroska
Версия формата : Version 4 / Version 2
Размер файла : 1,02 Гбайт
Продолжительность : 23 м.
Режим общего битрейта : Переменный
Общий поток : 6149 Кбит/сек
Название фильма : [GS] Gate - 02 - The Two Armies
Дата кодирования : UTC 2016-03-20 02:23:49
Программа кодирования : mkvmerge v8.6.1 ('Flying') 32bit
Библиотека кодирования : libebml v1.3.3 + libmatroska v1.4.4
Attachments : A FOR A.ttf / BAARS_.TTF / Brush Strokes.ttf / Certa Sans Medium.otf / FGPGyoshoCC-M-CP.ttf / JAPAB.TTF / lvnmbd.ttf / Magra-Bold.ttf / Profile-Medium.otf / SwaggerLight.ttf / ufonts.com_dax_extrabold.ttf

Видео
Идентификатор : 1
Формат : AVC
Формат/Информация : Advanced Video Codec
Профиль формата : High 10@L5
Параметр CABAC формата : Да
Параметр ReFrames формата : 5 кадров
Идентификатор кодека : V_MPEG4/ISO/AVC
Продолжительность : 23 м.
Битрейт : 4656 Кбит/сек
Ширина : 1920 пикселей
Высота : 1080 пикселей
Соотношение сторон : 16:9
Режим частоты кадров : Постоянный
Частота кадров : 23,976 (24000/1001) кадра/сек
Цветовое пространство : YUV
Субдискретизация насыщенности : 4:2:0
Битовая глубина : 10 бит
Тип развёртки : Прогрессивная
Бит/(Пиксели*Кадры) : 0.094
Размер потока : 793 Мбайт (76%)
Библиотека кодирования : x264 core 148 r2638 7599210
Настройки программы : cabac=1 / ref=5 / deblock=1:1:1 / analyse=0x3:0x113 / me=umh / subme=9 / psy=1 / psy_rd=0.70:0.00 / mixed_ref=1 / me_range=32 / chroma_me=1 / trellis=0 / 8x8dct=1 / cqm=0 / deadzone=21,11 / fast_pskip=0 / chroma_qp_offset=-2 / threads=12 / lookahead_threads=1 / sliced_threads=0 / nr=0 / decimate=1 / interlaced=0 / bluray_compat=0 / constrained_intra=0 / bframes=3 / b_pyramid=2 / b_adapt=2 / b_bias=0 / direct=1 / weightb=1 / open_gop=0 / weightp=2 / keyint=240 / keyint_min=23 / scenecut=40 / intra_refresh=0 / rc_lookahead=40 / rc=crf / mbtree=1 / crf=17.0 / qcomp=0.70 / qpmin=0 / qpmax=81 / qpstep=4 / ip_ratio=1.40 / aq=1:1.00
Язык : Japanese
Default : Нет
Forced : Нет

Аудио
Идентификатор : 2
Формат : FLAC
Формат/Информация : Free Lossless Audio Codec
Идентификатор кодека : A_FLAC
Продолжительность : 23 м.
Вид битрейта : Переменный
Битрейт : 1486 Кбит/сек
Каналы : 2 канала
Расположение каналов : Front: L R
Частота : 48,0 КГц
Частота кадров : 11,719 кадров/сек (4096 spf)
Битовая глубина : 24 бит
Размер потока : 253 Мбайт (24%)
Библиотека кодирования : libFLAC 1.3.1 (UTC 2014-11-25)
Язык : Japanese
Default : Да
Forced : Нет

Текст
Идентификатор : 3
Формат : ASS
Идентификатор кодека : S_TEXT/ASS
Идентификатор кодека/Информация : Advanced Sub Station Alpha
Продолжительность : 23 м.
Битрейт : 841 бит/сек
Count of elements : 866
Метод сжатия : Без потерь
Размер потока : 146 Кбайт (0%)
Заголовок : LFF Subs
Язык : English
Default : Да
Forced : Нет

Меню
00:00:00.000 : :Intro
00:03:03.000 : :OP
00:04:33.000 : :Part A
00:10:50.000 : :Eyecatch
00:10:55.000 : :Part B
00:22:06.000 : :ED
00:23:36.000 : :Preview
Отличие от Врата: там бьются наши воины/ Gate: Jieitai Kanochi nite, Kaku Tatakaeri [TV] [1-12 из 12] [2015] [приключения, фэнтези] [WebRip] [1080p] [Субтитры (JAP)]: BDRip
info [Профиль]  [ЛС] 
Показать сообщения:    
Ответить на тему

Текущее время: 22-Июл 16:53

Часовой пояс: GMT + 4



Вы не можете начинать темы
Вы не можете отвечать на сообщения
Вы не можете редактировать свои сообщения
Вы не можете удалять свои сообщения
Вы не можете голосовать в опросах
Вы не можете прикреплять файлы к сообщениям
Вы не можете скачивать файлы