Ошибка

Белый шторм / The White Storm (Бенни Чан / Benny Chan) [2013, криминал, драма, боевик, BDRip-AVC] AVO

Ответить на тему
 
Автор Сообщение

potroks

Пол: Пол:Муж

Стаж: 3 года 8 месяцев

Сообщений: 51

СССР
Рейтинг

post 24-Мар-2016 11:13 0[+]

[Цитировать] 

Белый шторм / The White Storm

Год выпуска: 2013
Страна: Гонконг / Universe Entertainment, Bona International Film Group
Жанр: криминал, драма, боевик
Продолжительность: 02:14:14
Перевод: Авторский (одноголосый) [А.Матвеев]
Субтитры: английские
Навигация по главам: есть
Режиссер: Бенни Чан / Benny Chan
В ролях:

Шон Лау Чин-ван, Луис Ку Тин-лок, Ник Чун Ка-фай, Хой-Панг Ло, Цюань Юань, Берг Н Тин-йип, Кен Ло (Bobby), Бен Лам (Hak Tsai), Лан Ло (Tsz-wai's Mother), Кристофер Коллинз (Lead Mercenary), Буре Ли (Helicopter M134 Gunner), Treechada Malayaporn (Mina)
Описание: Операция против известного наркобарона в Таиланде меняет судьбы сотрудников отдела по борьбе с наркотиками. Капитан-трудоголик теряет своих людей и блестящую карьеру, верного полицейского бросили, и он пропал без вести, полицейский под прикрытием был спасён, и он решил убежать от своего прошлого. Несколько лет спустя преступление, связанное с наркотиками объединило их для финального противостояния.
| |
Качество: BDRip-AVC
Формат: MKV
Видео кодек: AVC
Аудио кодек: AC3
Видео: 1024x436 (2.35:1), 1561 kbps, 24 fps, 0,146 bit/pixel
Аудио №1: AC3 / 5.1 / 48 kHz / 384 kbps / 16 bit | RUS
Аудио №2: AC3 / 5.1 / 48 kHz / 384 kbps / 16 bit | CHI

Код:

Общее
Уникальный идентификатор : 234690499562673749482221405505193280592 (0xB08FBEFEE8948BB5A7D0C8E81DC48450)
Полное имя : Belyi.Shtorm.2013.DUAL.BDRip.x264.by_potroks.mkv
Формат : Matroska
Версия формата : Version 4 / Version 2
Размер файла : 2,19 Гбайт
Продолжительность : 2 ч. 14 м.
Общий поток : 2330 Кбит/сек
Название фильма : The White Storm (2013)
Дата кодирования : UTC 2016-03-23 19:53:20
Программа кодирования : mkvmerge v5.9.0 ('On The Loose') built on Dec 15 2012 16:39:58
Библиотека кодирования : libebml v1.3.0 + libmatroska v1.4.0

Видео
Идентификатор : 1
Формат : AVC
Формат/Информация : Advanced Video Codec
Профиль формата : High@L4.1
Параметр CABAC формата : Да
Параметр ReFrames формата : 10 кадров
Идентификатор кодека : V_MPEG4/ISO/AVC
Продолжительность : 2 ч. 14 м.
Битрейт : 1561 Кбит/сек
Ширина : 1024 пикселя
Высота : 436 пикселей
Соотношение сторон : 2,35:1
Режим частоты кадров : Постоянный
Частота кадров : 24,000 кадра/сек
Цветовое пространство : YUV
Субдискретизация насыщенности : 4:2:0
Битовая глубина : 8 бит
Тип развёртки : Прогрессивная
Бит/(Пиксели*Кадры) : 0.146
Размер потока : 1,42 Гбайт (65%)
Заголовок : potroks
Библиотека кодирования : x264 core 130 r2273 b3065e6
Настройки программы : cabac=1 / ref=10 / deblock=1:-2:-1 / analyse=0x3:0x133 / me=umh / subme=11 / psy=1 / psy_rd=1.00:0.02 / mixed_ref=1 / me_range=32 / chroma_me=1 / trellis=2 / 8x8dct=1 / cqm=0 / deadzone=21,11 / fast_pskip=0 / chroma_qp_offset=-3 / threads=6 / lookahead_threads=6 / sliced_threads=0 / nr=0 / decimate=0 / interlaced=0 / bluray_compat=0 / constrained_intra=0 / bframes=11 / b_pyramid=2 / b_adapt=2 / b_bias=0 / direct=3 / weightb=1 / open_gop=0 / weightp=2 / keyint=250 / keyint_min=23 / scenecut=40 / intra_refresh=0 / rc_lookahead=60 / rc=2pass / mbtree=0 / bitrate=1561 / ratetol=1.0 / qcomp=0.70 / qpmin=0 / qpmax=69 / qpstep=4 / cplxblur=20.0 / qblur=0.5 / vbv_maxrate=20000 / vbv_bufsize=20000 / nal_hrd=none / ip_ratio=1.30 / pb_ratio=1.25 / aq=1:0.80
Язык : Chinese
Default : Да
Forced : Нет

Аудио #1
Идентификатор : 2
Формат : AC-3
Формат/Информация : Audio Coding 3
Расширение режима : CM (complete main)
Параметр Endianness формата : Big
Идентификатор кодека : A_AC3
Продолжительность : 2 ч. 14 м.
Вид битрейта : Постоянный
Битрейт : 384 Кбит/сек
Каналы : 6 каналов
Расположение каналов : Front: L C R, Side: L R, LFE
Частота : 48,0 КГц
Метод сжатия : С потерями
Размер потока : 369 Мбайт (16%)
Заголовок : AVO | DD 5.1 @ 384 kbps - D.Yesarev
Язык : Russian
Default : Да
Forced : Нет

Аудио #2
Идентификатор : 3
Формат : AC-3
Формат/Информация : Audio Coding 3
Расширение режима : CM (complete main)
Параметр Endianness формата : Big
Идентификатор кодека : A_AC3
Продолжительность : 2 ч. 14 м.
Вид битрейта : Постоянный
Битрейт : 384 Кбит/сек
Каналы : 6 каналов
Расположение каналов : Front: L C R, Side: L R, LFE
Частота : 48,0 КГц
Метод сжатия : С потерями
Размер потока : 369 Мбайт (16%)
Заголовок : Original | DD 5.1 @ 384 kbps
Язык : Chinese
Default : Нет
Forced : Нет

Текст
Идентификатор : 4
Формат : UTF-8
Идентификатор кодека : S_TEXT/UTF8
Идентификатор кодека/Информация : UTF-8 Plain Text
Язык : English
Default : Нет
Forced : Нет

Меню
00:00:00.000 : en:(01)00:00:00:000
00:11:50.208 : en:(02)00:11:50:208
00:20:47.541 : en:(03)00:20:47:541
00:32:32.625 : en:(04)00:32:32:625
00:41:05.000 : en:(05)00:41:05:000
00:55:11.041 : en:(06)00:55:11:041
01:05:40.791 : en:(07)01:05:40:791
01:16:10.583 : en:(08)01:16:10:583
01:26:51.291 : en:(09)01:26:51:291
01:36:30.291 : en:(10)01:36:30:291
01:46:42.708 : en:(11)01:46:42:708
02:00:50.458 : en:(12)02:00:50:458
02:14:14.000 : en:(13)02:14:14:000
info [Профиль]  [ЛС] 

post 24-Мар-2016 19:37 (спустя 8 часов) [-]0[+]

Топик был перенесен из форума Зарубежное кино | Rips в форум Азиатское кино | Rips

BZzz
 

Умный Веник

Пол: Пол:Муж

Стаж: 7 лет 3 месяца

Сообщений: 248

Украина
Рейтинг

post 24-Мар-2016 20:58 (спустя 9 часов) [-]-1[+]

[Цитировать] 

Спасибо за Матвеева!

_________________
Я устал от бессмысленной свободы...
info [Профиль]  [ЛС] 

sawa557

Пол: Пол:Муж

Стаж: 6 лет 9 месяцев

Сообщений: 14

Рейтинг

post 24-Мар-2016 23:16 (спустя 2 часа 17 минут) [-]0[+]

[Цитировать] 

Жесть?
info [Профиль]  [ЛС] 

Пир

Пол: Пол:Муж

Стаж: 5 лет 1 месяц

Сообщений: 33

Россия
Рейтинг

post 26-Мар-2016 02:30 (спустя 1 день 3 часа) [-]0[+]

[Цитировать] 

Мне одному главный герой, да и сама обложка напомнила "Марс атакует"?! kolob_107
info [Профиль]  [ЛС] 

Умный Веник

Пол: Пол:Муж

Стаж: 7 лет 3 месяца

Сообщений: 248

Украина
Рейтинг

post 27-Мар-2016 03:46 (спустя 1 день 1 час) [-]0[+]

[Цитировать] 

И, кстати, озвучка тут не Матвеева, а Есарева.

_________________
Я устал от бессмысленной свободы...
info [Профиль]  [ЛС] 
Показать сообщения:    
Ответить на тему

Текущее время: 07-Дек 22:26

Часовой пояс: GMT + 4



Вы не можете начинать темы
Вы не можете отвечать на сообщения
Вы не можете редактировать свои сообщения
Вы не можете удалять свои сообщения
Вы не можете голосовать в опросах
Вы не можете прикреплять файлы к сообщениям
Вы не можете скачивать файлы