Ошибка

Война в Корее / Серии: 4 из 4 (Павел Тупик) [2012 г., драма,военный,исторический,документальный HDTV 1080i]

Ответить на тему
 
Автор Сообщение

RedBull4293

Пол: Пол:Муж

Стаж: 3 года 10 месяцев

Сообщений: 42

Россия
Рейтинг

post 04-Мар-2016 20:59 0[+]

[Цитировать] 

pic="http://i73.fastpic.ru/big/2016/0304/3a/899cf1dae0c0866ffa369d63e3c2993a.jpg"
Война в Корее

Год выпуска: 2012
Страна: Россия ,Украина
Жанр: военный, драма, исторический,документальный
Продолжительность: 1 серия ~00:53:00
Перевод: Оригинальный
Субтитры: Отсутствуют
Режиссер: Павел Тупик
Описание:
Долгое время правительство СССР замалчивало участие советских военных в этой войне, а некоторые документы остаются недоступными для изучения до сих пор.
Рейтинг Кинопоиск: 7.546
Качество: HDTV 1080i
Формат: TS
Видео кодек: AVC
Аудио кодек: AC3
Видео: 1920x1080, AVC, 11.2 Мбит/с, 25,000 кадров/сек
Аудио: 48,0 КГц,6 ch, 384 Кбит/с - Оригинальный

Первая серия


США, совершив атомные бомбардировки Хиросимы и Нагасаки, продемонстрировали всему миру наличие у них ядерного оружия. В то же время в Европе и в Азии ускоренными темпами идет формирование стран социалистического содружества. Премьер-министр Великобритании Уинстон Черчилль объявляет о начале "холодной войны". СССР ввязывается в гонку вооружений и ведет работу по созданию реактивного самолeта. В КНДР начинает свою карьеру Ким Ир Сен, а в Китае к власти приходит Мао Цзэдун. На фоне перипетий политических амбиций и нарастающего противостояния между СССР и США - история судеб простых советских лeтчиков, принявших на себя основной удар в небе Китая и Кореи. Асы Второй мировой: Кожедуб, Пепеляев, Крамаренко и другие учат молодых китайских и корейских летчиков летать, штудируют новый для себя язык, осваивают новые модели самолетов. В Корее боевое крещение принимает знаменитый реактивный истребитель МиГ-15 – достойный противник американского "Сейбра". Теперь уже советским и американским лeтчикам приходится встречаться в небе как противникам.

Вторая серия


В Корею прибывает военный контингент стран-членов ООН, командование которым принимает генерал Макартур. Вооруженные советской техникой части Корейской Народной армии захватывают Сеул. Американские самолеты начинают массированные бомбардировки северокорейских войск. В ответ на обращение Ким Ир Сена за помощью к Сталину и Мао Цзэдуну, границу пересекает армия Китайских народных добровольцев. Из СССР в Китай устремляются поезда с летчиками-добровольцами и новой техникой. 1 ноября 1950 года происходит первый в истории Корейской войны воздушный бой между советскими МиГ-15 и американскими реактивными истребителями F-80 "Шутинг Стар".

Третья серия


Американские бомбардировщики наносят массированные удары по Северной Корее. Напалмом уничтожены города Синыйджу и Хверён. Объединенные китайско-северокорейские силы выходят к 38-й параллели, а к марту 1951 года захватывают Сеул. Прибывшая в Китай дивизия Кожедуба приступает к патрулированию неба на "Аллее МиГов". Перед летчиками ставится задача - посадить на китайский аэродром "Сейбр". 6 октября 1951 года задание выполняет группа полковника Евгения Пепеляева. В свою очередь, охоту за советским МиГом начинают американцы. На заседании Ассамблеи ООН с обращением о прекращении огня в Корее и взаимному отводу войск к 38-й параллели выступает СССР.

Четвертая серия


В конце 1951 года воздушная обстановка в небе Кореи усложняется. На летном составе сказываются эмоциональные и физические нагрузки: в некоторых боях бывает задействовано до 500 самолетов! Вместе с летчиками-истребителями небо Кореи и Китая защищают и советские зенитчики. Новый президент США Дуайт Эйзенхауэр выступает за окончание Корейской войны. После смерти Сталина Политбюро ЦК КПСС голосует за выведение советского контингента из Северного Китая. Начинаются мирные переговоры, а на границе двух корейских государств строительство демилитаризованной зоны.
Общее

Идентификатор : 1 (0x1)
Полное имя : C:\OGO2\Downloads\Фильмы\Война в корее\1 серия.ts
Формат : MPEG-TS
Размер файла : 4,46 Гбайт
Продолжительность : 52 м.
Режим общего битрейта : Переменный
Общий поток : 12,2 Мбит/сек

Видео

Идентификатор : 5481 (0x1569)
Идентификатор меню : 1 (0x1)
Формат : AVC
Формат/Информация : Advanced Video Codec
Профиль формата : High@L4
Параметр CABAC формата : Да
Параметр ReFrames формата : 3 кадра
Идентификатор кодека : 27
Продолжительность : 52 м.
Битрейт : 11,2 Мбит/сек
Ширина : 1920 пикселей
Высота : 1080 пикселей
Соотношение сторон : 16:9
Частота кадров : 25,000 кадров/сек
Стандарт вещания : Component
Цветовое пространство : YUV
Субдискретизация насыщенности : 4:2:0
Битовая глубина : 8 бит
Тип развёртки : Чересстрочная
Метод сохранения типа развёртки : Раздельные поля
Порядок развёртки : Верхнее поле первое
Бит/(Пиксели*Кадры) : 0.216
Размер потока : 4,10 Гбайт (92%)
Цветовой диапазон : Limited
Основные цвета : BT.709
Характеристики трансфера : BT.709
Коэффициенты матрицы : BT.709

Аудио

Идентификатор : 5485 (0x156D)
Идентификатор меню : 1 (0x1)
Формат : AC-3
Формат/Информация : Audio Coding 3
Расширение режима : CM (complete main)
Параметр Endianness формата : Big
Идентификатор кодека : 6
Продолжительность : 52 м.
Вид битрейта : Постоянный
Битрейт : 384 Кбит/сек
Каналы : 6 каналов
Расположение каналов : Front: L C R, Side: L R, LFE
Частота : 48,0 КГц
Частота кадров : 31,250 кадров/сек (1536 spf)
Метод сжатия : С потерями
Размер потока : 144 Мбайт (3%)
Язык : Russian
info [Профиль]  [ЛС] 
Показать сообщения:    
Ответить на тему

Текущее время: 04-Дек 22:25

Часовой пояс: GMT + 4



Вы не можете начинать темы
Вы не можете отвечать на сообщения
Вы не можете редактировать свои сообщения
Вы не можете удалять свои сообщения
Вы не можете голосовать в опросах
Вы не можете прикреплять файлы к сообщениям
Вы не можете скачивать файлы