Ошибка

В сердце моря / In the Heart of the Sea (Рон Ховард) [2015, Триллер, драма, приключения, биография, история, BDRemux 1080p]

Ответить на тему
 
Автор Сообщение

karlmenni

Пол: Пол:Муж

Стаж: 1 год 10 месяцев

Сообщений: 1235

Россия
Рейтинг

post 04-Мар-2016 15:38 2[+]

[Цитировать] 

В сердце моря / In the Heart of the Sea
«Based on the incredible true story that inspired Moby-Dick»


pic="http://s017.radikal.ru/i441/1603/1b/b87935094f75.png"
Год выпуска: 2015
Страна: США, Австралия, Испания, Великобритания, Канада
Студия: Cott Productions, Enelmar Productions, Imagine Entertainment
Жанр: Триллер, драма, приключения, биография, история
Продолжительность: 02:01:43
Перевод: Дублированный [iTunes]
Субтитры: Русский, английский
Рейтинг MPAA:

Режиссёр: Рон Ховард
В ролях: Крис Хемсворт, Бенджамин Уокер, Киллиан Мёрфи, Брендан Глисон, Бен Уишоу, Мишель Фэйрли, Том Холланд, Пол Андерсон, Фрэнк Диллэйн, Джозеф Моул
В 1819 году американский корабль «Эссекс» с командой из двух десятков человек на борту отправился из порта в штате Массачусетс на китобойный промысел. Осенью 1820-го успешная на протяжении полутора лет охота была прервана атакой гигантского кашалота на судно, в результате чего морякам пришлось пересесть в шлюпки. В течение трех с лишним месяцев они боролись за выживание посреди океана...
Качество: BDRemux 1080p
Формат: MKV
Видео кодек: AVC
Видео: AVC, 1920x1080 (16:9), 23.976 fps
Аудио 1: AC-3, 48.0 KHz, 6 ch, 384 Kbps, CBR (Russian)
Аудио 2: AC-3, 48.0 KHz, 2 ch, 192 Kbps, CBR (Ukrainian)
Аудио 3: TrueHD, 48.0 KHz, 8 ch, VBR (English)



          

Код:

Общее
Уникальный идентификатор                 : 223362119645395118314033982450706885970 (0xA809FABE542C9733921D1B7F80632D52)
Полное имя                               : C:\MyFiles\FILM\In_the_Heart_of_the_Sea_2015_BDRemux1080p.mkv
Формат                                   : Matroska
Версия формата                           : Version 4 / Version 2
Размер файла                             : 24,7 Гбайт
Продолжительность                        : 2 ч. 1 м.
Режим общего битрейта                    : Переменный
Общий поток                              : 29,0 Мбит/сек
Название фильма                          : In_the_Heart_of_the_Sea_2015_BDRemux1080p
Дата кодирования                         : UTC 2016-03-04 11:07:02
Программа кодирования                    : mkvmerge v5.9.0 ('On The Loose') built on Dec 31 2012 17:36:59
Библиотека кодирования                   : libebml v1.3.0 + libmatroska v1.4.0

Видео
Идентификатор                            : 1
Формат                                   : AVC
Формат/Информация                        : Advanced Video Codec
Профиль формата                          : High@L4.1
Параметр CABAC формата                   : Да
Параметр ReFrames формата                : 2 кадра
Режим смешивания                         : Header stripping
Идентификатор кодека                     : V_MPEG4/ISO/AVC
Продолжительность                        : 2 ч. 1 м.
Вид битрейта                             : Переменный
Ширина                                   : 1920 пикселей
Высота                                   : 1080 пикселей
Соотношение сторон                       : 16:9
Режим частоты кадров                     : Постоянный
Частота кадров                           : 23,976 кадра/сек
Цветовое пространство                    : YUV
Субдискретизация насыщенности            : 4:2:0
Битовая глубина                          : 8 бит
Тип развёртки                            : Прогрессивная
Default                                  : Да
Forced                                   : Нет

Аудио #1
Идентификатор                            : 2
Формат                                   : AC-3
Формат/Информация                        : Audio Coding 3
Расширение режима                        : CM (complete main)
Параметр Endianness формата              : Big
Режим смешивания                         : Header stripping
Идентификатор кодека                     : A_AC3
Продолжительность                        : 2 ч. 1 м.
Вид битрейта                             : Постоянный
Битрейт                                  : 384 Кбит/сек
Каналы                                   : 6 каналов
Расположение каналов                     : Front: L C R, Side: L R, LFE
Частота                                  : 48,0 КГц
Битовая глубина                          : 16 бит
Метод сжатия                             : С потерями
Размер потока                            : 334 Мбайт (1%)
Язык                                     : Russian
Default                                  : Да
Forced                                   : Нет

Аудио #2
Идентификатор                            : 3
Формат                                   : AC-3
Формат/Информация                        : Audio Coding 3
Расширение режима                        : CM (complete main)
Параметр Endianness формата              : Big
Режим смешивания                         : Header stripping
Идентификатор кодека                     : A_AC3
Продолжительность                        : 2 ч. 1 м.
Вид битрейта                             : Постоянный
Битрейт                                  : 192 Кбит/сек
Каналы                                   : 2 канала
Расположение каналов                     : Front: L R
Частота                                  : 48,0 КГц
Битовая глубина                          : 16 бит
Метод сжатия                             : С потерями
Размер потока                            : 167 Мбайт (1%)
Язык                                     : Ukrainian
Default                                  : Нет
Forced                                   : Нет

Аудио #3
Идентификатор                            : 4
Формат                                   : TrueHD
Идентификатор кодека                     : A_TRUEHD
Продолжительность                        : 2 ч. 1 м.
Вид битрейта                             : Переменный
Максимальный битрейт                     : 7719 Кбит/сек
Каналы                                   : 8 каналов
Расположение каналов                     : Front: L C R, Side: L R, Back: L R, LFE
Частота                                  : 48,0 КГц
Метод сжатия                             : Без потерь
Язык                                     : English
Default                                  : Нет
Forced                                   : Нет

Текст #1
Идентификатор                            : 5
Формат                                   : UTF-8
Идентификатор кодека                     : S_TEXT/UTF8
Идентификатор кодека/Информация          : UTF-8 Plain Text
Язык                                     : Russian
Default                                  : Да
Forced                                   : Нет

Текст #2
Идентификатор                            : 6
Формат                                   : UTF-8
Идентификатор кодека                     : S_TEXT/UTF8
Идентификатор кодека/Информация          : UTF-8 Plain Text
Язык                                     : English
Default                                  : Нет
Forced                                   : Нет


info [Профиль]  [ЛС] 

L O S T

Пол: Пол:Муж

Стаж: 5 лет 4 месяца

Сообщений: 127

Россия
Рейтинг

post 06-Мар-2016 09:28 (спустя 1 день 17 часов) [-]0[+]

[Цитировать] 

Как фильм, смотреть можно?
info [Профиль]  [ЛС] 

Дрыщ

Пол: Пол:Муж

Стаж: 7 лет 1 месяц

Сообщений: 70

Россия
Рейтинг

post 06-Мар-2016 11:29 (спустя 2 часа 1 минута) [-]1[+]

[Цитировать] 

да, фильм сильно выше среднего.
смотреть стоит.

_________________
сорян, адблок включен.
info [Профиль]  [ЛС] 

Crazer

Стаж: 7 лет 4 месяца

Сообщений: 58

Рейтинг

post 06-Мар-2016 12:42 (спустя 1 час 12 минут) [-]1[+]

[Цитировать] 

Фильм стоящий, ничего экстраординарного, но смотрится с интересом.

Единственное, некоторые моряки после длительного голодания выглядели слишком упитанными. :-)

Ну и в морских сценах компьютерная графика как-то режет глаз иногда, слишком заметна.
info [Профиль]  [ЛС] 

post 21-Июл-2016 10:11 (спустя 4 месяца 14 дней) [-]0[+]

Топик был перенесен из форума Новинки 2015-2016 (Web-DL, DVD, HD DVD, Blu-ray, HD Rips) в форум Зарубежное кино | HD DVD и Blu-ray

Formula
 
Показать сообщения:    
Ответить на тему

Текущее время: 03-Дек 21:47

Часовой пояс: GMT + 4



Вы не можете начинать темы
Вы не можете отвечать на сообщения
Вы не можете редактировать свои сообщения
Вы не можете удалять свои сообщения
Вы не можете голосовать в опросах
Вы не можете прикреплять файлы к сообщениям
Вы не можете скачивать файлы