Ошибка

Ария - Алая Пуля / Hidan no Aria AA (TV-2) [1-12 из 12] [2015] [боевик, школа, сёдзе ай] [HDTV720p] [Любительский (Многоголосый)]

Ответить на тему
 
Автор Сообщение

Chel90RUS

Пол: Пол:Муж

Стаж: 5 лет 5 месяцев

Сообщений: 413

Россия
Рейтинг

post 03-Мар-2016 12:31 0[+]

[Цитировать] 

pic="http://static2.anidub.com/tracker/poster/4772b588ec.jpg"
Ария - Алая Пуля
Hidan no Aria AA / Aria the Scarlet Ammo Double A / 緋弾のアリアAA

Год выпуска: 2015
Жанр: боевик, школа, сёдзе ай
Страна: Япония
Тип: HDTV
Продолжительность: 12 серий ~ 25 мин
Дата выпуска: c 06.10.2015 по 22.12.2015
Режиссер: Кавабата Такаси
Автор оригинала / Сценарист: Акамацу Тюгаку
Озвучено: Demetra, Esther, 9й Неизвестный
Перевод: Asada Shire, Shirome, Yukio_Sempai
Тайминг и работа со звуком: Pozitiv
Студия: Doga kobo
Аудио: AAC 48000Hz stereo 192kbps [A: English [eng] (aac lc, 48000 Hz, stereo, 192 kb/s)]
Видео: MPEG4 Video (H264) 1280x720 23.976fps 2010kbps [V: 264 (h264 high L4.1, yuv420p, 1280x720, 2010 kb/s)]

General
Complete name : \[AniDub]_Hidan_no_Aria_AA_TV-2_[01]_[720p_264x_Aac]_[Demetra_Esther_9th_Unknown].mp4
Format : MPEG-4
Format profile : Base Media
Codec ID : isom
File size : 379 MiB
Duration : 23mn 59s
Overall bit rate mode : Variable
Overall bit rate : 2 206 Kbps
Encoded date : UTC 2015-10-17 22:39:08
Tagged date : UTC 2015-10-17 22:39:08

Video
ID : 1
Format : AVC
Format/Info : Advanced Video Codec
Format profile : High@L4.1
Format settings, CABAC : Yes
Format settings, ReFrames : 4 frames
Codec ID : avc1
Codec ID/Info : Advanced Video Coding
Duration : 23mn 59s
Bit rate : 2 010 Kbps
Maximum bit rate : 14.3 Mbps
Width : 1 280 pixels
Height : 720 pixels
Display aspect ratio : 16:9
Frame rate mode : Constant
Frame rate : 23.976 fps
Color space : YUV
Chroma subsampling : 4:2:0
Bit depth : 8 bits
Scan type : Progressive
Bits/(Pixel*Frame) : 0.091
Stream size : 345 MiB (91%)
Title : 264
Writing library : x264 core 129 r2245+729M 1a52e03
Encoding settings : cabac=1 / ref=4 / deblock=1:1:-1 / analyse=0x3:0x113 / me=umh / subme=9 / psy=1 / fade_compensate=0.00 / psy_rd=1.00:0.00 / mixed_ref=1 / me_range=24 / chroma_me=1 / trellis=2 / 8x8dct=1 / cqm=0 / deadzone=21,11 / fast_pskip=1 / chroma_qp_offset=-2 / threads=8 / lookahead_threads=1 / sliced_threads=0 / nr=0 / decimate=1 / interlaced=0 / bluray_compat=0 / constrained_intra=0 / fgo=0 / bframes=9 / b_pyramid=2 / b_adapt=2 / b_bias=0 / direct=1 / weightb=1 / open_gop=0 / weightp=2 / keyint=240 / keyint_min=24 / scenecut=40 / intra_refresh=0 / rc=crf / mbtree=0 / crf=18.5 / qcomp=0.72 / qpmin=0 / qpmax=69 / qpstep=4 / ip_ratio=1.40 / pb_ratio=1.30 / aq=1:0.85
Encoded date : UTC 2015-10-06 18:34:12
Tagged date : UTC 2015-10-17 22:40:22
Color range : Limited
Color primaries : BT.709
Transfer characteristics : BT.709
Matrix coefficients : BT.709

Audio
ID : 2
Format : AAC
Format/Info : Advanced Audio Codec
Format profile : LC
Codec ID : 40
Duration : 23mn 59s
Bit rate mode : Variable
Bit rate : 192 Kbps
Maximum bit rate : 196 Kbps
Channel(s) : 2 channels
Channel positions : Front: L R
Sampling rate : 48.0 KHz
Compression mode : Lossy
Stream size : 33.0 MiB (9%)
Language : English
Encoded date : UTC 2015-10-17 22:40:06
Tagged date : UTC 2015-10-17 22:40:22
Описание:Мечта юной Акари пойти по стопам своего семпая, идола старшей школы бутэй Арии Канзаки, но увы в отличии от своего примера для подражания робкая Акари не подаёт выдающихся надежд. Но зачем унывать, если рядом есть верные друзья и бутэй S-ранга в придачу? Теперь сама Ария преподаст Акари пару уроков и сделает из неё лучшего бутэя! Но до этого ещё очень далеко и Акари предстоит ещё очень долгий путь...
info [Профиль]  [ЛС] 

Alexxator

Стаж: 6 лет 2 месяца

Сообщений: 879

Рейтинг

post 03-Мар-2016 21:46 (спустя 9 часов) [-]0[+]

[Цитировать] 

Мечта юной Акари пойти по стопам своего семпая, идола старшей школы бутэй Арии Канзаки
А по русски?
info [Профиль]  [ЛС] 

Chel90RUS

Пол: Пол:Муж

Стаж: 5 лет 5 месяцев

Сообщений: 413

Россия
Рейтинг

post 03-Мар-2016 21:57 (спустя 10 минут) [-]0[+]

[Цитировать] 

Alexxator писал(а):

Мечта юной Акари пойти по стопам своего семпая, идола старшей школы бутэй Арии Канзаки
А по русски?
Что тебе не понятно?
:
Ария Кандзаки по прозвищу Алая Пуля – краса и гордость школы юных детективов японской столицы. И тут прошел слух, что Алая Пуля начала выбор Амики – младшей подруги-напарницы, которую согласно давним традициям будет лично курировать, обучать, а потом допустит до совместной работы. Считается, что силы и способности напарниц должны быть сравнимы, а в идеале – дополнять друг друга, но в жизни возможно все, и на призыв живой легенды откликнулись десятки претенденток.

Акари Мамия, новичок детективной школы – одна из самых преданных фанаток Кандзаки, и, конечно же, готова на все, чтобы быть рядом с кумиром. В силе и умениях Акари пока что не блещет, но какая разница, ведь людей сводит не статистика, а судьба! Мимолетная встреча показала Арии, что новая знакомая кроме решимости имеет серьезный потенциал, а также таит немало загадок – и она назвала Акари своей Амикой. Все верно, такие таланты надо беречь и выращивать, а не только бедного Киндзи гонять!

© Hollow, World Art

_________________
info [Профиль]  [ЛС] 

Alexxator

Стаж: 6 лет 2 месяца

Сообщений: 879

Рейтинг

post 04-Мар-2016 22:46 (спустя 1 день) [-]0[+]

[Цитировать] 

Chel90RUS писал(а):

Alexxator писал(а):

Мечта юной Акари пойти по стопам своего семпая, идола старшей школы бутэй Арии Канзаки
А по русски?
Что тебе не понятно?
:
Ария Кандзаки по прозвищу Алая Пуля – краса и гордость школы юных детективов японской столицы. И тут прошел слух, что Алая Пуля начала выбор Амики – младшей подруги-напарницы, которую согласно давним традициям будет лично курировать, обучать, а потом допустит до совместной работы. Считается, что силы и способности напарниц должны быть сравнимы, а в идеале – дополнять друг друга, но в жизни возможно все, и на призыв живой легенды откликнулись десятки претенденток.

Акари Мамия, новичок детективной школы – одна из самых преданных фанаток Кандзаки, и, конечно же, готова на все, чтобы быть рядом с кумиром. В силе и умениях Акари пока что не блещет, но какая разница, ведь людей сводит не статистика, а судьба! Мимолетная встреча показала Арии, что новая знакомая кроме решимости имеет серьезный потенциал, а также таит немало загадок – и она назвала Акари своей Амикой. Все верно, такие таланты надо беречь и выращивать, а не только бедного Киндзи гонять!

© Hollow, World Art
Описание отсюда непонятно. Зато ворлд арт всё прояснил.
info [Профиль]  [ЛС] 

Neolitik

Пол: Пол:Муж

Стаж: 3 года 7 месяцев

Сообщений: 7

Россия
Рейтинг

post 28-Апр-2016 01:52 (спустя 1 месяц 23 дня) [-]0[+]

[Цитировать] 

Благодарю!

_________________
Мат. плата: ASRock Z77 Extreme4
Процессор: Intel® Core™ i5-3470 3.2GHz
Оп.память: Kingstone DDR3 2x8Gb 1600MHz
Видеокарта: MSI GeForce GTX 970
HDD+SSD: WD2TB + SSD San Disk Ultra II 120 Gb
Бл.питания: Corsair CX 650M
Оп.система: Windows 10 Pro x64 oem
info [Профиль]  [ЛС] 
Показать сообщения:    
Ответить на тему

Текущее время: 05-Дек 08:34

Часовой пояс: GMT + 4



Вы не можете начинать темы
Вы не можете отвечать на сообщения
Вы не можете редактировать свои сообщения
Вы не можете удалять свои сообщения
Вы не можете голосовать в опросах
Вы не можете прикреплять файлы к сообщениям
Вы не можете скачивать файлы