Ошибка

Враг у ворот / Enemy at the Gates (Жан-Жак Анно) [2000 г., военный, драма, исторический, HD-DVD Remux 1080p]

Ответить на тему
 
Автор Сообщение

RedBull4293

Пол: Пол:Муж

Стаж: 3 года 10 месяцев

Сообщений: 42

Россия
Рейтинг

post 29-Фев-2016 16:35 3[+]

[Цитировать] 

pic="http://i73.fastpic.ru/big/2016/0229/c7/1ac728d0a92dcb8ee15f8d67f763f4c7.jpg"
Враг у ворот / Enemy at the Gates
«A battle between two nations became a conflict between two men.»

Год выпуска: 2000
Страна: США , Франция , Германия , Великобритания , Ирландия
Жанр: военный, драма, исторический
Продолжительность: 02:10:54
Перевод:Профессиональный (многоголосый, закадровый) [Universal],Профессиональный (полное дублирование) [R1],Профессиональный (многоголосый, закадровый) [Премьер],Профессиональный (полное дублирование) [Пифагор],Авторский (одноголосый) [Ю.Живов],Профессиональный (двухголосый) [П.Гланц и И.Королева]
Субтитры: русские, английские
Режиссер: Жан-Жак Анно
В ролях: Джуд Лоу, Эд Харрис, Рейчел Вайс, Джозеф Файнc, Боб Хоскинс, Рон Перлман, Ева Маттес, Гэбриел Томсон, Маттиас Хабих, Софи Роиз
Описание:
1942 год, разгар Сталинградской битвы. Немецкое командование направляет на передовую своего лучшего стрелка, майора Кенига, с особым заданием. Этот опытный и терпеливый профессионал — единственный, кто может попытаться справиться с русским «ангелом смерти» — неуловимым снайпером Василием Зайцевым.

Зайцев — легенда и икона для защитников Сталинграда. Каждый день он выносит смертный приговор десяткам захватчиков, попавших в перекрестье его прицела. Между двумя уникальными снайперами начинается смертельная схватка, победителем из которой будет суждено выйти лишь одному…
Рейтинг Кинопоиск: 7.039
Рейтинг IMDB: 7.60/10
Качество: HD-DVD Remux 1080p
Формат: mkv
Видео кодек: VC1
Аудио кодек: AC3, DTS
Видео: 1920x1080, 20,1 Мбит/сек, 23.976 кадр/сек
Аудио1:AC3, 384 Кбит/сек, 6 каналов, 48.0 КГц - Профессиональный (многоголосый, закадровый) - Universal
Аудио2:AC3, 448 Кбит/сек, 6 каналов, 48.0 КГц - Профессиональный (полное дублирование) - R1
Аудио3:AC3, 224 Кбит/сек, 2 канала, 48.0 КГц - Профессиональный (многоголосый, закадровый) - Премьер
Аудио4:AC3, 224 Кбит/сек, 2 канала, 48.0 КГц - Профессиональный (полное дублирование) - Пифагор
Аудио4:AC3, 384 Кбит/сек, 6 каналов, 48.0 КГц - Авторский (одноголосый) - Ю.Живов
Аудио4:DTS, 1536 Кбит/сек, 6 каналов, 48.0 КГц - Профессиональный (двухголосый) - П.Гланц и И.Королева
Аудио4:DTS-HD MA 5.1, 1576 Кбит/сек (DTS Core: 5.1 / 48 kHz / 1509 Кбит/сек / 16-бит) - English

Общее

Уникальный идентификатор : 200782716838752249919706316798328232136 (0x970D583C216430C18166C56598DAD8C8)
Полное имя : C:\OGO2\Downloads\Фильмы\Enemy at the gates.mkv
Формат : Matroska
Версия формата : Version 2
Размер файла : 23,1 Гбайт
Продолжительность : 2 ч. 11 м.
Общий поток : 25,2 Мбит/сек
Дата кодирования : UTC 2011-11-04 16:25:45
Программа кодирования : mkvmerge v4.6.0 ('Still Crazy After All These Years') сборка от Mar 13 2011 18:33:29
Библиотека кодирования : libebml v1.2.0 + libmatroska v1.1.0

Видео

Идентификатор : 1
Формат : VC-1
Профиль формата : Advanced@L3
Идентификатор кодека : V_MS/VFW/FOURCC / WVC1
Идентификатор кодека/Подсказка : Microsoft
Продолжительность : 2 ч. 11 м.
Ширина : 1920 пикселей
Высота : 1080 пикселей
Соотношение сторон : 16:9
Режим частоты кадров : Постоянный
Частота кадров : 23,976 (24000/1001) кадра/сек
Цветовое пространство : YUV
Субдискретизация насыщенности : 4:2:0
Битовая глубина : 8 бит
Тип развёртки : Прогрессивная
Порядок развёртки : Нижнее поле первое
Метод сжатия : С потерями
Язык : English
Default : Да
Forced : Нет

Аудио #1

Идентификатор : 2
Формат : AC-3
Формат/Информация : Audio Coding 3
Расширение режима : CM (complete main)
Параметр Endianness формата : Big
Идентификатор кодека : A_AC3
Продолжительность : 2 ч. 11 м.
Вид битрейта : Постоянный
Битрейт : 384 Кбит/сек
Каналы : 6 каналов
Расположение каналов : Front: L C R, Side: L R, LFE
Частота : 48,0 КГц
Частота кадров : 31,250 кадров/сек (1536 spf)
Метод сжатия : С потерями
Размер потока : 360 Мбайт (2%)
Заголовок : Лицензия, Universal
Язык : Russian
Default : Да
Forced : Нет

Аудио #2

Идентификатор : 3
Формат : AC-3
Формат/Информация : Audio Coding 3
Расширение режима : CM (complete main)
Параметр Endianness формата : Big
Идентификатор кодека : A_AC3
Продолжительность : 2 ч. 11 м.
Вид битрейта : Постоянный
Битрейт : 448 Кбит/сек
Каналы : 6 каналов
Расположение каналов : Front: L C R, Side: L R, LFE
Частота : 48,0 КГц
Частота кадров : 31,250 кадров/сек (1536 spf)
Метод сжатия : С потерями
Размер потока : 420 Мбайт (2%)
Заголовок : R1
Язык : Russian
Default : Нет
Forced : Нет

Аудио #3

Идентификатор : 4
Формат : AC-3
Формат/Информация : Audio Coding 3
Расширение режима : CM (complete main)
Параметр Endianness формата : Big
Идентификатор кодека : A_AC3
Продолжительность : 2 ч. 11 м.
Вид битрейта : Постоянный
Битрейт : 224 Кбит/сек
Каналы : 2 канала
Расположение каналов : Front: L R
Частота : 48,0 КГц
Частота кадров : 31,250 кадров/сек (1536 spf)
Метод сжатия : С потерями
Размер потока : 210 Мбайт (1%)
Заголовок : Премьер
Язык : Russian
Default : Нет
Forced : Нет

Аудио #4

Идентификатор : 5
Формат : AC-3
Формат/Информация : Audio Coding 3
Расширение режима : CM (complete main)
Параметр Endianness формата : Big
Идентификатор кодека : A_AC3
Продолжительность : 2 ч. 11 м.
Вид битрейта : Постоянный
Битрейт : 192 Кбит/сек
Каналы : 2 канала
Расположение каналов : Front: L R
Частота : 48,0 КГц
Частота кадров : 31,250 кадров/сек (1536 spf)
Метод сжатия : С потерями
Размер потока : 180 Мбайт (1%)
Заголовок : Дубляж
Язык : Russian
Default : Нет
Forced : Нет

Аудио #5

Идентификатор : 6
Формат : AC-3
Формат/Информация : Audio Coding 3
Расширение режима : CM (complete main)
Параметр Endianness формата : Big
Идентификатор кодека : A_AC3
Продолжительность : 2 ч. 11 м.
Вид битрейта : Постоянный
Битрейт : 384 Кбит/сек
Каналы : 6 каналов
Расположение каналов : Front: L C R, Side: L R, LFE
Частота : 48,0 КГц
Частота кадров : 31,250 кадров/сек (1536 spf)
Метод сжатия : С потерями
Размер потока : 360 Мбайт (2%)
Заголовок : Живов
Язык : Russian
Default : Нет
Forced : Нет

Аудио #6

Идентификатор : 7
Формат : DTS
Формат/Информация : Digital Theater Systems
Режим : 16
Параметр Endianness формата : Big
Идентификатор кодека : A_DTS
Продолжительность : 2 ч. 11 м.
Вид битрейта : Постоянный
Битрейт : 1509 Кбит/сек
Каналы : 6 каналов
Расположение каналов : Front: L C R, Side: L R, LFE
Частота : 48,0 КГц
Частота кадров : 93,750 кадра/сек (512 spf)
Битовая глубина : 24 бит
Метод сжатия : С потерями
Размер потока : 1,38 Гбайт (6%)
Заголовок : Гланц и Королева
Язык : Russian
Default : Нет
Forced : Нет

Аудио #7

Идентификатор : 8
Формат : DTS
Формат/Информация : Digital Theater Systems
Профиль формата : MA / Core
Режим : 16
Параметр Endianness формата : Big
Идентификатор кодека : A_DTS
Продолжительность : 2 ч. 11 м.
Вид битрейта : Переменный / Постоянный
Битрейт : Неизвестно / 1509 Кбит/сек
Каналы : 6 каналов
Расположение каналов : Front: L C R, Side: L R, LFE
Частота : 48,0 КГц
Частота кадров : 93,750 кадра/сек (512 spf)
Битовая глубина : 16 бит
Метод сжатия : Без потерь / Lossy
Заголовок : Оригинал
Язык : English
Default : Нет
Forced : Нет

Текст #1

Идентификатор : 9
Формат : UTF-8
Идентификатор кодека : S_TEXT/UTF8
Идентификатор кодека/Информация : UTF-8 Plain Text
Язык : Russian
Default : Да
Forced : Нет

Текст #2

Идентификатор : 10
Формат : UTF-8
Идентификатор кодека : S_TEXT/UTF8
Идентификатор кодека/Информация : UTF-8 Plain Text
Язык : English
Default : Нет
Forced : Нет

info [Профиль]  [ЛС] 

post 29-Фев-2016 23:14 (спустя 6 часов) [-]0[+]

Топик был перенесен из форума Анонсы в форум Зарубежное кино | HD DVD и Blu-ray

BZzz
 

RedBull4293

Пол: Пол:Муж

Стаж: 3 года 10 месяцев

Сообщений: 42

Россия
Рейтинг

post 01-Мар-2016 00:36 (спустя 8 часов) [-]0[+]

[Цитировать] 

Товарищи раздача будет завтра,сейчас свет обрубили Грущу
info [Профиль]  [ЛС] 

RAMZES 47

Пол: Пол:Муж

Стаж: 2 года 7 месяцев

Сообщений: 30

Россия
Рейтинг

post 01-Мар-2016 04:57 (спустя 4 часа) [-]1[+]

[Цитировать] 

Хороший фильм
info [Профиль]  [ЛС] 

Kavarin

Пол: Пол:Муж

Стаж: 3 года 9 месяцев

Сообщений: 33

Рейтинг

post 01-Мар-2016 11:31 (спустя 6 часов) [-]0[+]

[Цитировать] 

Фильм крайне неудачный! Наполнен "западным" видением на героическую оборону города Сталинграда и всего СССР в целом. Собственно чего и следовало ожидать от стран снимавших его. Игра актёров оставляет желать лучшего,а в некоторые моменты просто вызывает рвотные рефлексы. Фильм на три с минусом как не крути (посмотреть разок,поплеваться и забыть).
info [Профиль]  [ЛС] 

rosalco

Стаж: 5 лет 5 месяцев

Сообщений: 116

Рейтинг

post 01-Мар-2016 15:49 (спустя 4 часа) [-]0[+]

[Цитировать] 

Вот именно поэтому им нас никогда не победить. Они не понимают нас. Вообще. Как будто не о Сталинграде фильм,а о другой планете.
info [Профиль]  [ЛС] 

Doctor Net

Пол: Пол:Муж

Стаж: 7 лет 5 месяцев

Сообщений: 828

Россия
Рейтинг

post 01-Мар-2016 16:45 (спустя 55 минут) [-]3[+]

[Цитировать] 

Думаю всё равно получилось куда лучше нашего блоКбАстера Сталинграда
info [Профиль]  [ЛС] 

levgenic

Пол: Пол:Муж

Стаж: 4 года 10 месяцев

Сообщений: 132

Рейтинг

post 01-Мар-2016 21:34 (спустя 4 часа) [-]0[+]

[Цитировать] 

Не "гоните"! Нормальный фильм. Ну да, есть определённый набор штампов. Представьте, что Федя Бондарчук снял бы на тему "Спасти рядового Райана"...
info [Профиль]  [ЛС] 

cam4

Стаж: 7 лет 3 месяца

Сообщений: 6

Украина
Рейтинг

post 02-Мар-2016 09:45 (спустя 12 часов) [-]-1[+]

[Цитировать] 

да росссссийский "сталинград" Бондарчюка однозначно лучше , а вас дибилов точно не победить , вы сами сдохните за светлое будущее . А про фильм -фильм хоть старый но хороший . Обидно что про Совецкого героя фильм сняли бужуи
info [Профиль]  [ЛС] 

Kavarin

Пол: Пол:Муж

Стаж: 3 года 9 месяцев

Сообщений: 33

Рейтинг

post 02-Мар-2016 11:06 (спустя 1 час 21 минута) [-]1[+]

[Цитировать] 

cam4 писал(а):

да росссссийский "сталинград" Бондарчюка однозначно лучше , а вас дибилов точно не победить , вы сами сдохните за светлое будущее . А про фильм -фильм хоть старый но хороший . Обидно что про Совецкого героя фильм сняли бужуи
А у вас милейший однозначно повысилась температура ниже поясницы. Тут никто не заявлял,что выброс от Бондарчука лучше,а вот оскорблять не нужно, это говорит о вас как о недалёком ученике младших классов пересмотревших украинское телевидение.
info [Профиль]  [ЛС] 
Показать сообщения:    
Ответить на тему

Текущее время: 09-Дек 17:30

Часовой пояс: GMT + 4



Вы не можете начинать темы
Вы не можете отвечать на сообщения
Вы не можете редактировать свои сообщения
Вы не можете удалять свои сообщения
Вы не можете голосовать в опросах
Вы не можете прикреплять файлы к сообщениям
Вы не можете скачивать файлы