Ошибка

Снупи и мелочь пузатая в кино / The Peanuts Movie (Стив Мартино / Steve Martino) [2015, США, мультфильм, BDRip 720p] Dub (iTunes) + Ukr Dub + Original Eng + Rus, Ukr Sub

Ответить на тему
 
Автор Сообщение

L

Пол: Пол:Муж

Стаж: 6 лет 8 месяцев

Сообщений: 10837

Украина
Рейтинг

post 28-Фев-2016 11:28 0[+]

[Цитировать] 

Снупи и мелочь пузатая в кино / The Peanuts Movie

Год выпуска: 2015
Выпущено: США
Жанр: мультфильм
Продолжительность: 01:28:06
Перевод:
Профессиональный (дублированный) | iTunes - русский
Профессиональный (дублированный) | iTunes - украинский
Оригинальная аудиодорожка: английский
Cубтитры: русские (полные, форсированные), украинские (полные, форсированные), английские

Режиссёр: Стив Мартино / Steve Martino
В ролях: Тромбоун Шорти, Ребекка Блум, Анастасия Бредихина, Франческа Капальди, Кристин Ченоуэт, Александр Гарфин, Ной Джонстон, Билл Мелендес, Хэдли Белль Миллер, Мика Ревелли

Описание:Чарли Браун, Снупи, Люси, Линус и другие полюбившиеся персонажи комиксов «Мелочь пузатая» впервые появятся на большом экране в полнометражном анимационном фильме, снятом с использованием последних достижений 3D-анимации. Снупи — самый симпатичный пес в мире — к тому же, классный пилот — отправляется в невероятные воздушные приключения в погоне за главным злодеем Красным Бароном. В это время у его приятеля Чарли Брауна начинаются поистине эпические приключения!

Качество видео: BDRip 720p | Murtini
Формат видео: MKV

Видео: MPEG-4 AVC Video 3887 kbps 1280x690 / 23,976 fps / 1.85:1 / High Profile 4.1
Аудио:
Русский: 48 kHz, AC3 Dolby Digital, 3/2 (L,C,R,l,r) + LFE ch, ~384 kbps
Украинский: 48 kHz, AC3 Dolby Digital, 2.0 (L,R), ~ 192 Кбит/с
English: 48 kHz, DTS, 3/2 (L,C,R,l,r) + LFE ch, ~1509.00 kbps avg
Формат субтитров: softsub (SRT)
The.Peanuts.Movie.2015.COMPLETE.BLURAY

Код:



Уникальный идентификатор                 : 196453857228375671331823387771955865676 (0x93CBA2FA5B7CD4DA9BB4B3349680684C)
Полное имя                               : E:\V.temp\The.Peanuts.Movie.2015.COMPLETE.BLURAY\The.Peanuts.Movie.2015.BluRay.720p.DD5.1.x264.mkv
Формат                                   : Matroska
Версия формата                           : Version 4 / Version 2
Размер файла                             : 3,68 Гбайт
Продолжительность                        : 1 ч. 28 м.
Общий поток                              : 5975 Кбит/сек
Название фильма                          : The.Peanuts.Movie.2015.BluRay.720p.DD5.1.x264-Murtini
Дата кодирования                         : UTC 2016-02-28 07:10:23
Программа кодирования                    : mkvmerge v7.7.0 ('Six Voices') 32bit built on Feb 28 2015 23:23:00
Библиотека кодирования                   : libebml v1.3.1 + libmatroska v1.4.2
Обложка                                  : Yes
Attachments                              : cover.png

Видео
Идентификатор                            : 1
Формат                                   : AVC
Формат/Информация                        : Advanced Video Codec
Профиль формата                          : High@L4.1
Параметр CABAC формата                   : Да
Параметр ReFrames формата                : 9 кадров
Идентификатор кодека                     : V_MPEG4/ISO/AVC
Продолжительность                        : 1 ч. 28 м.
Битрейт                                  : 3887 Кбит/сек
Ширина                                   : 1280 пикселей
Высота                                   : 690 пикселей
Соотношение сторон                       : 1,85:1
Режим частоты кадров                     : Постоянный
Частота кадров                           : 23,976 (24000/1001) кадра/сек
Цветовое пространство                    : YUV
Субдискретизация насыщенности            : 4:2:0
Битовая глубина                          : 8 бит
Тип развёртки                            : Прогрессивная
Бит/(Пиксели*Кадры)                      : 0.184
Размер потока                            : 2,39 Гбайт (65%)
Заголовок                                : The.Peanuts.Movie.2015.BluRay.720p.DD5.1.x264-Murtini
Библиотека кодирования                   : x264 core 148 r2638 7599210
Настройки программы                      : cabac=1 / ref=9 / deblock=1:-2:-1 / analyse=0x3:0x133 / me=umh / subme=11 / psy=1 / psy_rd=1.05:0.10 / mixed_ref=1 / me_range=32 / chroma_me=1 / trellis=2 / 8x8dct=1 / cqm=0 / deadzone=21,11 / fast_pskip=0 / chroma_qp_offset=-4 / threads=6 / lookahead_threads=1 / sliced_threads=0 / nr=0 / decimate=1 / interlaced=0 / bluray_compat=0 / constrained_intra=0 / bframes=10 / b_pyramid=2 / b_adapt=2 / b_bias=0 / direct=1 / weightb=1 / open_gop=0 / weightp=2 / keyint=230 / keyint_min=21 / scenecut=40 / intra_refresh=0 / rc_lookahead=60 / rc=crf / mbtree=0 / crf=15.5 / qcomp=0.70 / qpmin=0 / qpmax=69 / qpstep=4 / vbv_maxrate=30000 / vbv_bufsize=40000 / crf_max=0.0 / nal_hrd=none / filler=0 / ip_ratio=1.35 / pb_ratio=1.25 / aq=2:0.90
Язык                                     : English
Default                                  : Да
Forced                                   : Нет

Аудио #1
Идентификатор                            : 2
Формат                                   : AC-3
Формат/Информация                        : Audio Coding 3
Расширение режима                        : CM (complete main)
Параметр Endianness формата              : Big
Идентификатор кодека                     : A_AC3
Продолжительность                        : 1 ч. 28 м.
Вид битрейта                             : Постоянный
Битрейт                                  : 384 Кбит/сек
Каналы                                   : 6 каналов
Расположение каналов                     : Front: L C R, Side: L R, LFE
Частота                                  : 48,0 КГц
Частота кадров                           : 31,250 кадров/сек (1536 spf)
Метод сжатия                             : С потерями
Размер потока                            : 242 Мбайт (6%)
Заголовок                                : DD5.1@384kbps
Язык                                     : Russian
Default                                  : Да
Forced                                   : Нет

Аудио #2
Идентификатор                            : 3
Формат                                   : AC-3
Формат/Информация                        : Audio Coding 3
Расширение режима                        : CM (complete main)
Параметр Endianness формата              : Big
Идентификатор кодека                     : A_AC3
Продолжительность                        : 1 ч. 28 м.
Вид битрейта                             : Постоянный
Битрейт                                  : 192 Кбит/сек
Каналы                                   : 2 канала
Расположение каналов                     : Front: L R
Частота                                  : 48,0 КГц
Частота кадров                           : 31,250 кадров/сек (1536 spf)
Метод сжатия                             : С потерями
Размер потока                            : 121 Мбайт (3%)
Заголовок                                : DD2.0@192kbps
Язык                                     : Ukrainian
Default                                  : Нет
Forced                                   : Нет

Аудио #3
Идентификатор                            : 4
Формат                                   : DTS
Формат/Информация                        : Digital Theater Systems
Профиль формата                          : ES Matrix / Core
Режим                                    : 16
Параметр Endianness формата              : Big
Идентификатор кодека                     : A_DTS
Продолжительность                        : 1 ч. 28 м.
Вид битрейта                             : Постоянный
Битрейт                                  : 1509 Кбит/сек
Каналы                                   : 7 каналов / 6 каналов
Расположение каналов                     : Front: L C R, Side: L R, Back: C, LFE / Front: L C R, Side: L R, LFE
Частота                                  : 48,0 КГц
Частота кадров                           : 93,750 кадра/сек (512 spf)
Битовая глубина                          : 24 бит
Метод сжатия                             : С потерями
Размер потока                            : 951 Мбайт (25%)
Заголовок                                : DTS5.1@1509kbps
Язык                                     : English
Default                                  : Нет
Forced                                   : Нет

Текст #1
Идентификатор                            : 5
Формат                                   : UTF-8
Идентификатор кодека                     : S_TEXT/UTF8
Идентификатор кодека/Информация          : UTF-8 Plain Text
Продолжительность                        : 1 ч. 26 м.
Битрейт                                  : 0 бит/сек
Count of elements                        : 4
Размер потока                            : 225 байт (0%)
Заголовок                                : Forced
Язык                                     : Russian
Default                                  : Да
Forced                                   : Нет

Текст #2
Идентификатор                            : 6
Формат                                   : UTF-8
Идентификатор кодека                     : S_TEXT/UTF8
Идентификатор кодека/Информация          : UTF-8 Plain Text
Продолжительность                        : 1 ч. 26 м.
Битрейт                                  : 70 бит/сек
Count of elements                        : 820
Размер потока                            : 44,5 Кбайт (0%)
Язык                                     : Russian
Default                                  : Нет
Forced                                   : Нет

Текст #3
Идентификатор                            : 7
Формат                                   : UTF-8
Идентификатор кодека                     : S_TEXT/UTF8
Идентификатор кодека/Информация          : UTF-8 Plain Text
Продолжительность                        : 1 ч. 18 м.
Битрейт                                  : 0 бит/сек
Count of elements                        : 3
Размер потока                            : 139 байт (0%)
Заголовок                                : Forced
Язык                                     : Ukrainian
Default                                  : Нет
Forced                                   : Нет

Текст #4
Идентификатор                            : 8
Формат                                   : UTF-8
Идентификатор кодека                     : S_TEXT/UTF8
Идентификатор кодека/Информация          : UTF-8 Plain Text
Продолжительность                        : 1 ч. 26 м.
Битрейт                                  : 72 бит/сек
Count of elements                        : 827
Размер потока                            : 46,1 Кбайт (0%)
Язык                                     : Ukrainian
Default                                  : Нет
Forced                                   : Нет

Текст #5
Идентификатор                            : 9
Формат                                   : UTF-8
Идентификатор кодека                     : S_TEXT/UTF8
Идентификатор кодека/Информация          : UTF-8 Plain Text
Продолжительность                        : 1 ч. 27 м.
Битрейт                                  : 56 бит/сек
Count of elements                        : 1304
Размер потока                            : 36,4 Кбайт (0%)
Язык                                     : English
Default                                  : Нет
Forced                                   : Нет

Меню
00:00:00.000                             : en:00:00:00.000
00:04:07.372                             : en:00:04:07.372
00:08:06.903                             : en:00:08:06.903
00:11:14.674                             : en:00:11:14.674
00:15:20.378                             : en:00:15:20.378
00:18:58.554                             : en:00:18:58.554
00:22:27.263                             : en:00:22:27.263
00:26:06.857                             : en:00:26:06.857
00:28:59.237                             : en:00:28:59.237
00:32:02.379                             : en:00:32:02.379
00:36:01.451                             : en:00:36:01.451
00:41:11.427                             : en:00:41:11.427
00:46:17.692                             : en:00:46:17.692
00:51:48.480                             : en:00:51:48.480
00:56:42.691                             : en:00:56:42.691
00:59:55.509                             : en:00:59:55.509
01:02:37.587                             : en:01:02:37.587
01:06:57.180                             : en:01:06:57.180
01:11:25.198                             : en:01:11:25.198
01:15:14.051                             : en:01:15:14.051
01:18:10.352                             : en:01:18:10.352
01:21:06.278                             : en:01:21:06.278
01:25:20.490                             : en:01:25:20.490
01:28:17.542                             : en:01:28:17.542
01:33:35.276                             : en:01:33:35.276
01:37:51.783                             : en:01:37:51.783
01:41:32.920                             : en:01:41:32.920
01:43:34.375                             : en:01:43:34.375

Код:

x264 [info]: frame I:1288  Avg QP:12.06  size:172145  PSNR Mean Y:50.84 U:54.42 V:54.39 Avg:51.70 Global:51.33
x264 [info]: frame P:32354 Avg QP:13.78  size: 40802  PSNR Mean Y:49.10 U:52.51 V:52.47 Avg:49.92 Global:49.51
x264 [info]: frame B:93097 Avg QP:15.87  size: 11025  PSNR Mean Y:48.61 U:52.16 V:52.12 Avg:49.45 Global:48.97

info [Профиль]  [ЛС] 

post 21-Июл-2016 10:13 (спустя 4 месяца 21 день) [-]0[+]

Топик был перенесен из форума Новинки 2015-2016 (Web-DL, DVD, HD DVD, Blu-ray, HD Rips) в форум Мультфильмы (HD Video)

Formula
 
Показать сообщения:    
Ответить на тему

Текущее время: 09-Дек 15:45

Часовой пояс: GMT + 4



Вы не можете начинать темы
Вы не можете отвечать на сообщения
Вы не можете редактировать свои сообщения
Вы не можете удалять свои сообщения
Вы не можете голосовать в опросах
Вы не можете прикреплять файлы к сообщениям
Вы не можете скачивать файлы