Ошибка

Час пик 1,2,3 / Rush Hour 1,2,3 (Бретт Рэтнер) [1998, 2001, 2007 г., боевик, триллер, комедия, криминал, BDRemux 1080p] Трилогия

Ответить на тему
 
Автор Сообщение

Eвгений

Пол: Пол:Муж

Стаж: 6 лет 9 месяцев

Сообщений: 680

Россия
Рейтинг

post 28-Фев-2016 01:56 0[+]

[Цитировать] 

Час пик / Rush Hour

Год выпуска: 1998
Страна: США
Жанр: боевик, триллер, комедия, криминал
Продолжительность: 01:37:49
Перевод: Профессиональный (полное дублирование)
Язык субтитров: Русский, Английский, Арабский, Болгарский, Китайский, Хорватский, Чешский, Датский, Эстонский, Финский, Немецкий, Греческий, Иврит, Венгерский, Исландский, Итальянский, Корейский, Норвежский, Польский, Португальский, Румынский, Словенский, Испанский, Шведский, Тайский, Турецкий
Режиссер:
  • Бретт Рэтнер

В ролях:
  • Кен Люн, Джеки Чан, Том Уилкинсон, Ци Ма, Роберт Литман, Майкл Чоу, Джулия Хсю, Крис Такер, Крис Пенн, Кай Леннокс

Описание: В Лос-Анджелесе злодеи похищают малолетнюю дочь китайского консула, которую в Гонконге учил кунг-фу инспектор Ли. Консул вызывает Ли в Америку, чтобы тот принял участие в освобождении девочки.

Агенты ФБР обратились к полиции с просьбой выделить им самого никчемного сотрудника, чтобы тот взял китайца на себя и показал ему достопримечательности, а главное, не позволил вмешиваться в их дела.

Им оказывается самый болтливый полицейский Картер. Естественно, после ряда разногласий и недоразумений они объединяют усилия и всерьез берутся за вызволение заложницы.

Доп. информация:
Сохранены оригинальные главы как на Blu-ray.
Дубляж с диска Киномании (NTSC) c битрейтом 448 kbps, в отличии от 384 kbps на лицензии R5, но имеет ПАЛ-овскую тональность.
Голоса авторских переводчиков (Живов, Санаев) ужасного качества, поэтому дороги с них не включены в раздачу.
РАЗДАЧА ОТ:
Качество: Blu-Ray Remux
Формат: BDMV
Видео кодек: VC-1
Аудио кодек: AC3, DTS-HD Master Audio
Видео: 1920x1080 at 23.976 fps, ~22.75 Mbps avg
Аудио#1: Russian: 48 kHz, AC3, 3/2 (L,C,R,l,r) + LFE ch, ~448.00 kbps avg |Дубляж|
Аудио#2: English: 48 kHz/24-bit, DTS-HD MA 7.1, ~5363.00 kbps avg
Аудио#3: English: 48 kHz, AC3, 2/0 (L,R) ch, ~192.00 kbps avg |Сommentary by Director Brett Ratner|
Аудио#4: English: 48 kHz, AC3, 2/0 (L,R) ch, ~192.00 kbps avg |Сommentary by Composer Lalo Schifrin|
Disc Title: RUSH_HOUR
Disc Size: 23 298 521 436 bytes
Protection: AACS
BD-Java: No
BDInfo: 0.5.8

Notes:

BDINFO HOME:
Cinema Squid
http://www.cinemasquid.com/blu-ray/tools/bdinfo

INCLUDES FORUMS REPORT FOR:
AVS Forum Blu-ray Audio and Video Specifications Thread
http://www.avsforum.com/avs-vb/showthread.php?t=1155731

********************
PLAYLIST: 00000.MPLS
********************

<--- BEGIN FORUMS PASTE --->

Код:

                                                                                                                Total   Video                                             
Title                                                           Codec   Length  Movie Size      Disc Size       Bitrate Bitrate Main Audio Track                          Secondary Audio Track
-----                                                           ------  ------- --------------  --------------  ------- ------- ------------------                        ---------------------
00000.MPLS                                                      VC-1    1:37:49 23 298 435 072  23 298 521 436  31,75   22,75   DD AC3 5.1 448Kbps                       


Код:



DISC INFO:

Disc Title:     RUSH_HOUR
Disc Size:      23 298 521 436 bytes
Protection:     AACS
BD-Java:        No
BDInfo:         0.5.8

PLAYLIST REPORT:

Name:                   00000.MPLS
Length:                 1:37:49.984 (h:m:s.ms)
Size:                   23 298 435 072 bytes
Total Bitrate:          31,75 Mbps

VIDEO:

Codec                   Bitrate             Description     
-----                   -------             -----------     
VC-1 Video              22754 kbps          1080p / 23,976 fps / 16:9 / Advanced Profile 3

AUDIO:

Codec                           Language        Bitrate         Description     
-----                           --------        -------         -----------     
Dolby Digital Audio             Russian         448 kbps        5.1 / 48 kHz / 448 kbps / DN -4dB
DTS-HD Master Audio             English         5363 kbps       7.1 / 48 kHz / 5363 kbps / 24-bit (DTS Core: 5.1-ES / 48 kHz / 1509 kbps / 24-bit)
Dolby Digital Audio             English         192 kbps        2.0 / 48 kHz / 192 kbps / DN -4dB / Dolby Surround
Dolby Digital Audio             English         192 kbps        2.0 / 48 kHz / 192 kbps / DN -4dB / Dolby Surround

SUBTITLES:

Codec                           Language        Bitrate         Description     
-----                           --------        -------         -----------     
Presentation Graphics           Russian         30,254 kbps                     
Presentation Graphics           English         41,044 kbps                     
Presentation Graphics           German          45,338 kbps                     
Presentation Graphics           Italian         42,293 kbps                     
Presentation Graphics           Spanish         32,588 kbps                     
Presentation Graphics           Chinese         32,931 kbps                     
Presentation Graphics           Korean          24,332 kbps                     
Presentation Graphics           Spanish         31,431 kbps                     
Presentation Graphics           Arabic          19,071 kbps                     
Presentation Graphics           Bulgarian       32,608 kbps                     
Presentation Graphics           Croatian        31,701 kbps                     
Presentation Graphics           Czech           23,498 kbps                     
Presentation Graphics           Danish          32,892 kbps                     
Presentation Graphics           Estonian        35,556 kbps                     
Presentation Graphics           Finnish         28,226 kbps                     
Presentation Graphics           Greek           21,384 kbps                     
Presentation Graphics           Hebrew          25,328 kbps                     
Presentation Graphics           Hungarian       32,298 kbps                     
Presentation Graphics           Icelandic       40,134 kbps                     
Presentation Graphics           Norwegian       29,172 kbps                     
Presentation Graphics           Polish          31,214 kbps                     
Presentation Graphics           Portuguese      34,886 kbps                     
Presentation Graphics           Romanian        29,638 kbps                     
Presentation Graphics           Slovenian       28,240 kbps                     
Presentation Graphics           Swedish         32,582 kbps                     
Presentation Graphics           Thai            30,850 kbps                     
Presentation Graphics           Turkish         37,052 kbps                     
Presentation Graphics           Chinese         59,410 kbps                     
Presentation Graphics           Chinese         25,491 kbps                     
Presentation Graphics           Japanese        23,368 kbps                     
Presentation Graphics           Japanese        44,320 kbps                     
Presentation Graphics           Japanese        26,938 kbps                     
Presentation Graphics           Japanese        0,176 kbps                     

FILES:

Name            Time In         Length          Size            Total Bitrate   
----            -------         ------          ----            -------------   
00000.M2TS      0:00:00.000     1:37:49.984     23 298 435 072  31 753         

CHAPTERS:

Number          Time In         Length          Avg Video Rate  Max 1-Sec Rate  Max 1-Sec Time  Max 5-Sec Rate  Max 5-Sec Time  Max 10Sec Rate  Max 10Sec Time  Avg Frame Size  Max Frame Size  Max Frame Time 
------          -------         ------          --------------  --------------  --------------  --------------  --------------  --------------  --------------  --------------  --------------  -------------- 
1               0:00:00.000     0:02:28.022     22 064 kbps     31 601 kbps     00:02:08.128    30 353 kbps     00:02:08.294    29 942 kbps     00:02:07.001    120 073 bytes   282 756 bytes   00:02:15.301   
2               0:02:28.022     0:01:33.718     26 119 kbps     49 468 kbps     00:03:22.827    31 498 kbps     00:03:20.950    29 759 kbps     00:03:35.798    136 174 bytes   350 274 bytes   00:03:09.606   
3               0:04:01.741     0:02:09.045     23 918 kbps     35 140 kbps     00:05:19.319    30 329 kbps     00:04:41.239    29 358 kbps     00:05:11.853    124 699 bytes   457 360 bytes   00:04:42.031   
4               0:06:10.786     0:03:18.114     27 467 kbps     55 145 kbps     00:08:57.036    32 330 kbps     00:07:38.082    30 621 kbps     00:08:36.307    143 199 bytes   474 200 bytes   00:09:26.732   
5               0:09:28.900     0:02:34.404     25 351 kbps     46 794 kbps     00:11:16.217    33 188 kbps     00:11:16.217    30 699 kbps     00:11:11.379    132 167 bytes   444 186 bytes   00:10:43.392   
6               0:12:03.304     0:03:13.652     24 628 kbps     42 446 kbps     00:14:49.638    30 799 kbps     00:14:47.595    29 423 kbps     00:15:06.655    128 398 bytes   614 909 bytes   00:14:49.930   
7               0:15:16.957     0:01:54.739     26 416 kbps     36 496 kbps     00:15:53.077    29 872 kbps     00:16:08.759    28 912 kbps     00:16:08.425    137 721 bytes   380 291 bytes   00:16:26.276   
8               0:17:11.696     0:02:50.003     19 136 kbps     37 233 kbps     00:17:22.541    31 614 kbps     00:18:44.790    29 716 kbps     00:18:44.790    99 764 bytes    454 685 bytes   00:19:36.967   
9               0:20:01.700     0:02:51.879     19 685 kbps     30 231 kbps     00:22:05.490    26 880 kbps     00:21:56.189    26 207 kbps     00:21:57.065    102 651 bytes   412 240 bytes   00:22:50.744   
10              0:22:53.580     0:04:10.876     24 738 kbps     40 815 kbps     00:24:17.038    31 921 kbps     00:25:25.273    29 501 kbps     00:25:23.647    128 974 bytes   428 222 bytes   00:24:57.996   
11              0:27:04.456     0:02:12.507     19 915 kbps     36 324 kbps     00:29:14.544    28 108 kbps     00:29:10.874    24 956 kbps     00:27:52.379    103 829 bytes   366 679 bytes   00:29:15.545   
12              0:29:16.963     0:05:22.614     21 547 kbps     34 607 kbps     00:33:47.358    32 013 kbps     00:33:46.232    29 074 kbps     00:33:46.232    112 336 bytes   481 156 bytes   00:34:39.535   
13              0:34:39.577     0:01:10.904     18 126 kbps     25 591 kbps     00:35:31.462    23 043 kbps     00:35:25.248    22 488 kbps     00:35:22.411    94 503 bytes    305 675 bytes   00:34:43.581   
14              0:35:50.481     0:02:56.425     21 844 kbps     43 024 kbps     00:37:27.078    31 993 kbps     00:37:01.802    28 238 kbps     00:37:01.385    113 885 bytes   543 635 bytes   00:37:01.928   
15              0:38:46.907     0:02:48.418     23 134 kbps     39 655 kbps     00:41:33.115    31 222 kbps     00:39:32.328    28 464 kbps     00:39:28.407    120 612 bytes   403 017 bytes   00:41:00.583   
16              0:41:35.326     0:01:57.032     26 543 kbps     38 093 kbps     00:42:27.711    31 351 kbps     00:42:24.792    30 126 kbps     00:42:19.495    138 384 bytes   349 375 bytes   00:43:19.513   
17              0:43:32.359     0:03:16.530     23 767 kbps     42 430 kbps     00:45:54.001    32 576 kbps     00:44:57.361    30 356 kbps     00:43:40.701    123 913 bytes   375 351 bytes   00:44:42.054   
18              0:46:48.889     0:01:53.404     26 690 kbps     50 211 kbps     00:48:41.293    32 425 kbps     00:47:13.539    30 491 kbps     00:47:11.370    139 149 bytes   561 275 bytes   00:48:42.085   
19              0:48:42.294     0:02:29.608     26 340 kbps     36 790 kbps     00:49:52.989    31 446 kbps     00:49:42.396    29 633 kbps     00:49:38.016    137 326 bytes   393 188 bytes   00:48:47.299   
20              0:51:11.902     0:03:33.962     19 825 kbps     29 961 kbps     00:53:48.808    28 080 kbps     00:53:46.681    25 630 kbps     00:53:41.718    103 356 bytes   326 005 bytes   00:51:13.904   
21              0:54:45.864     0:02:49.211     19 269 kbps     27 310 kbps     00:56:51.699    25 065 kbps     00:56:50.198    23 512 kbps     00:56:48.196    100 460 bytes   292 724 bytes   00:55:39.502   
22              0:57:35.076     0:02:01.204     19 425 kbps     35 397 kbps     00:59:33.987    23 298 kbps     00:59:31.276    22 889 kbps     00:58:47.357    101 276 bytes   306 106 bytes   00:59:34.779   
23              0:59:36.281     0:03:11.399     21 994 kbps     35 572 kbps     01:01:12.335    27 195 kbps     01:01:08.539    25 643 kbps     00:59:45.456    114 669 bytes   436 973 bytes   01:00:17.697   
24              1:02:47.680     0:03:18.072     26 879 kbps     40 828 kbps     01:04:41.794    31 619 kbps     01:04:27.697    30 208 kbps     01:05:42.396    140 136 bytes   358 008 bytes   01:03:27.303   
25              1:06:05.753     0:02:08.378     19 233 kbps     36 719 kbps     01:07:37.470    27 222 kbps     01:06:06.629    26 839 kbps     01:06:07.838    100 271 bytes   286 362 bytes   01:06:16.764   
26              1:08:14.131     0:02:36.030     17 020 kbps     32 510 kbps     01:08:45.579    26 390 kbps     01:08:42.451    25 171 kbps     01:08:38.447    88 735 bytes    318 195 bytes   01:09:21.866   
27              1:10:50.162     0:02:17.762     16 069 kbps     23 811 kbps     01:10:54.124    21 262 kbps     01:10:54.124    20 223 kbps     01:10:54.124    83 779 bytes    349 366 bytes   01:12:35.976   
28              1:13:07.925     0:03:25.454     22 556 kbps     37 527 kbps     01:15:54.174    31 828 kbps     01:15:53.799    29 497 kbps     01:15:49.294    117 595 bytes   388 730 bytes   01:16:22.703   
29              1:16:33.380     0:02:13.759     25 538 kbps     42 765 kbps     01:17:27.642    31 722 kbps     01:18:07.808    29 771 kbps     01:16:40.345    133 143 bytes   389 187 bytes   01:17:53.794   
30              1:18:47.139     0:03:19.615     27 339 kbps     53 299 kbps     01:19:10.162    32 707 kbps     01:20:30.700    29 982 kbps     01:20:30.742    142 533 bytes   415 000 bytes   01:22:02.876   
31              1:22:06.755     0:01:37.221     27 372 kbps     47 682 kbps     01:22:27.192    32 773 kbps     01:22:23.229    30 692 kbps     01:22:18.433    142 707 bytes   408 404 bytes   01:22:46.461   
32              1:23:43.977     0:02:14.592     26 136 kbps     43 012 kbps     01:25:40.218    32 510 kbps     01:25:39.133    29 835 kbps     01:23:45.353    136 260 bytes   463 732 bytes   01:25:53.731   
33              1:25:58.570     0:02:02.704     27 641 kbps     49 599 kbps     01:26:50.496    32 781 kbps     01:26:30.101    30 252 kbps     01:26:29.726    144 108 bytes   501 446 bytes   01:26:30.351   
34              1:28:01.274     0:01:56.115     26 965 kbps     42 023 kbps     01:28:41.566    31 968 kbps     01:28:49.032    29 496 kbps     01:28:44.527    140 585 bytes   436 294 bytes   01:28:41.941   
35              1:29:57.390     0:02:13.384     25 549 kbps     38 143 kbps     01:31:02.748    31 581 kbps     01:31:39.660    29 230 kbps     01:30:38.015    133 450 bytes   386 263 bytes   01:31:03.666   
36              1:32:10.774     0:03:06.061     16 750 kbps     25 594 kbps     01:33:12.545    22 878 kbps     01:33:12.420    21 740 kbps     01:33:12.253    87 405 bytes    291 414 bytes   01:33:15.840   
37              1:35:16.836     0:02:33.148     12 630 kbps     32 020 kbps     01:37:20.543    29 444 kbps     01:37:17.081    27 159 kbps     01:36:33.871    66 572 bytes    400 042 bytes   01:37:21.460   

STREAM DIAGNOSTICS:

File            PID             Type            Codec           Language                Seconds                 Bitrate                 Bytes           Packets         
----            ---             ----            -----           --------                --------------          --------------          -------------   -----           
00000.M2TS      4113 (0x1011)   0xEA            VC-1                                    5869,822                22 755                  16 695 797 963  90 822 326     
00000.M2TS      4352 (0x1100)   0x81            AC3             rus (Russian)           5869,822                448                     328 720 896     1 834 380       
00000.M2TS      4353 (0x1101)   0x86            DTS-HD MA       eng (English)           5869,822                5 363                   3 935 318 504   22 302 669     
00000.M2TS      4354 (0x1102)   0x81            AC3             eng (English)           5869,822                192                     140 878 080     917 175         
00000.M2TS      4355 (0x1103)   0x81            AC3             eng (English)           5869,822                192                     140 878 080     917 175         
00000.M2TS      4608 (0x1200)   0x90            PGS             rus (Russian)           5869,822                30                      22 198 729      128 778         
00000.M2TS      4609 (0x1201)   0x90            PGS             eng (English)           5869,822                41                      30 115 494      172 906         
00000.M2TS      4610 (0x1202)   0x90            PGS             deu (German)            5869,822                45                      33 266 053      190 197         
00000.M2TS      4611 (0x1203)   0x90            PGS             ita (Italian)           5869,822                42                      31 031 757      178 136         
00000.M2TS      4612 (0x1204)   0x90            PGS             spa (Spanish)           5869,822                33                      23 911 266      138 536         
00000.M2TS      4613 (0x1205)   0x90            PGS             zho (Chinese)           5869,822                33                      24 162 827      139 592         
00000.M2TS      4614 (0x1206)   0x90            PGS             kor (Korean)            5869,822                24                      17 853 262      105 086         
00000.M2TS      4615 (0x1207)   0x90            PGS             spa (Spanish)           5869,822                31                      23 061 784      133 673         
00000.M2TS      4616 (0x1208)   0x90            PGS             ara (Arabic)            5869,822                19                      13 992 815      84 070         
00000.M2TS      4617 (0x1209)   0x90            PGS             bul (Bulgarian)         5869,822                33                      23 925 971      138 045         
00000.M2TS      4618 (0x120A)   0x90            PGS             hrv (Croatian)          5869,822                32                      23 260 229      134 350         
00000.M2TS      4619 (0x120B)   0x90            PGS             ces (Czech)             5869,822                23                      17 241 576      101 607         
00000.M2TS      4620 (0x120C)   0x90            PGS             dan (Danish)            5869,822                33                      24 133 841      139 168         
00000.M2TS      4621 (0x120D)   0x90            PGS             est (Estonian)          5869,822                36                      26 089 071      149 812         
00000.M2TS      4622 (0x120E)   0x90            PGS             fin (Finnish)           5869,822                28                      20 710 346      119 006         
00000.M2TS      4623 (0x120F)   0x90            PGS             ell (Greek)             5869,822                21                      15 690 219      90 228         
00000.M2TS      4624 (0x1210)   0x90            PGS             heb (Hebrew)            5869,822                25                      18 584 086      109 037         
00000.M2TS      4625 (0x1211)   0x90            PGS             hun (Hungarian)         5869,822                32                      23 698 437      136 822         
00000.M2TS      4626 (0x1212)   0x90            PGS             isl (Icelandic)         5869,822                40                      29 448 159      168 101         
00000.M2TS      4627 (0x1213)   0x90            PGS             nor (Norwegian)         5869,822                29                      21 404 912      124 344         
00000.M2TS      4628 (0x1214)   0x90            PGS             pol (Polish)            5869,822                31                      22 903 121      132 445         
00000.M2TS      4629 (0x1215)   0x90            PGS             por (Portuguese)        5869,822                35                      25 596 911      147 154         
00000.M2TS      4630 (0x1216)   0x90            PGS             ron (Romanian)          5869,822                30                      21 746 482      125 064         
00000.M2TS      4631 (0x1217)   0x90            PGS             slv (Slovenian)         5869,822                28                      20 720 857      120 625         
00000.M2TS      4632 (0x1218)   0x90            PGS             swe (Swedish)           5869,822                33                      23 906 791      137 472         
00000.M2TS      4633 (0x1219)   0x90            PGS             tha (Thai)              5869,822                31                      22 635 505      131 085         
00000.M2TS      4634 (0x121A)   0x90            PGS             tur (Turkish)           5869,822                37                      27 186 545      155 823         
00000.M2TS      4635 (0x121B)   0x90            PGS             zho (Chinese)           5869,822                59                      43 591 445      249 113         
00000.M2TS      4636 (0x121C)   0x90            PGS             zho (Chinese)           5869,822                25                      18 703 544      107 030         
00000.M2TS      4637 (0x121D)   0x90            PGS             jpn (Japanese)          5869,822                23                      17 146 234      100 875         
00000.M2TS      4638 (0x121E)   0x90            PGS             jpn (Japanese)          5869,822                44                      32 519 342      185 840         
00000.M2TS      4639 (0x121F)   0x90            PGS             jpn (Japanese)          5869,822                27                      19 765 680      112 609         
00000.M2TS      4640 (0x1220)   0x90            PGS             jpn (Japanese)          5869,822                0                       128 790         932             

<---- END FORUMS PASTE ---->


Час пик 2 / Rush Hour 2

Год выпуска: 2001
Страна: США, Гонконг
Жанр: боевик, триллер, комедия
Продолжительность: 01:30:07
Перевод: Профессиональный (полное дублирование)
Язык субтитров: Русский, Английский
Режиссер:
  • Бретт Рэтнер

В ролях:
  • Джеки Чан, Крис Такер, Джон Лоун, Чжан Цзыи, Роселин Санчес, Алан Кинг, Харрис Юлин, Кеннет Цан, Лиза ЛоЦицеро, Мей Меланкон

Описание: История начинается непосредственно с того момента, на котором закончилась первая часть - полицейские Ли и Картер прибывают в Гонконг по следам преступников, замышляющих похищение китайский сокровищ и продажи их в штатах.

По мере того, как детективы Картер и Ли становятся все больше и больше запутанными в преступном заговоре, вовлекающем их в смертоносную Триаду, поездка в стиле нон-стоп от Гонконга до Лос-Анджелеса и Лас-Вегаса, оборачивается для них безумно интересным, смешным и в то же время опасным приключением.

Полицейские должны использовать все свои навыки, чтобы заманить в ловушку одного из самых опасных преступников в мире...

Доп. информация:
Сохранены оригинальные главы как на Blu-ray
Дорожки №2, 6 были получены путем наложения чистых голосов на центральный канал оригинала
РАЗДАЧА ОТ:
Качество: Blu-Ray Remux
Формат: BDMV
Видео кодек: MPEG-4 AVC
Аудио кодек: AC3, DTS-HD MA 5.1
Видео: MPEG-4 AVC, 23949 kbps, 1920x1080 / 23,976 fps
Аудио#1: Russian: 48 kHz, AC3, 3/2 (L,C,R,l,r) + LFE ch, ~448 kbps avg |Дубляж|
Аудио#2: Russian: 48 kHz/24-bit, DTS-HD MA 5.1, ~2780 kbps avg |Многоголосый закадровый, Карусель|
Аудио#3: Russian: 48 kHz, AC3, 3/2 (L,C,R,l,r) + LFE ch, ~384 kbps avg |Многоголосый закадровый, LDV|
Аудио#4: Russian: 48 kHz, AC3, 2/0 (L,R) ch, ~192 kbps avg |Многоголосый закадровый, ТНТ|
Аудио#5: Russian: 48 kHz, AC3, 2/0 (L,R) ch, ~192 kbps avg |Двухголосый закадровый, SDI Media|
Аудио#6: Russian: 48 kHz/24-bit, DTS-HD MA 5.1, ~2904 kbps avg |Одноголосый закадровый, Гаврилов|
Аудио#7: Russian: 48 kHz, AC3, 2/0 (L,R) ch, ~192 kbps avg |Одноголосый закадровый, Визгунов|
Аудио#8: Ukrainian: 48 kHz, AC3, 2/0 (L,R) ch, ~192 kbps avg |Многоголосый закадровый, Новый канал|
Аудио#9: Ukrainian: 48 kHz, AC3, 2/0 (L,R) ch, ~192 kbps avg |Многоголосый закадровый, Интер|
Аудио#10: Ukrainian: 48 kHz, AC3, 2/0 (L,R) ch, ~192 kbps avg |Многоголосый закадровый, ICTV|
Аудио#11: English: 48 kHz/24-bit, DTS-HD MA 5.1, ~2171 kbps avg
Аудио#12: English: 48 kHz, AC3, 2/0 (L,R) ch, ~192 kbps avg |Commentary with Director Brett Ratner|
Disc Title: RUSH_ HOUR_2_2001_REMUX_HDCLUB
Disc Size: 24 761 257 744 bytes
Protection: AACS
BD-Java: No
BDInfo: 0.5.8

Notes:

BDINFO HOME:
Cinema Squid
http://www.cinemasquid.com/blu-ray/tools/bdinfo

INCLUDES FORUMS REPORT FOR:
AVS Forum Blu-ray Audio and Video Specifications Thread
http://www.avsforum.com/avs-vb/showthread.php?t=1155731

********************
PLAYLIST: 00000.MPLS
********************

<--- BEGIN FORUMS PASTE --->

Код:

                                                                                                                Total   Video                                             
Title                                                           Codec   Length  Movie Size      Disc Size       Bitrate Bitrate Main Audio Track                          Secondary Audio Track
-----                                                           ------  ------- --------------  --------------  ------- ------- ------------------                        ---------------------
00000.MPLS                                                      AVC     1:30:08 24 761 167 872  24 761 257 744  36,63   23,95   DD AC3 5.1 448Kbps                        DTS-HD Master 5.1 2780Kbps (48kHz/24-bit)


Код:



DISC INFO:

Disc Title:     RUSH_ HOUR_2_2001_REMUX_HDCLUB
Disc Size:      24 761 257 744 bytes
Protection:     AACS
BD-Java:        No
BDInfo:         0.5.8

PLAYLIST REPORT:

Name:                   00000.MPLS
Length:                 1:30:08.032 (h:m:s.ms)
Size:                   24 761 167 872 bytes
Total Bitrate:          36,63 Mbps

VIDEO:

Codec                   Bitrate             Description     
-----                   -------             -----------     
MPEG-4 AVC Video        23949 kbps          1080p / 23,976 fps / 16:9 / High Profile 4.1

AUDIO:

Codec                           Language        Bitrate         Description     
-----                           --------        -------         -----------     
Dolby Digital Audio             Russian         448 kbps        5.1 / 48 kHz / 448 kbps / DN -4dB
DTS-HD Master Audio             Russian         2780 kbps       5.1 / 48 kHz / 2780 kbps / 24-bit (DTS Core: 5.1 / 48 kHz / 1509 kbps / 24-bit)
Dolby Digital Audio             Russian         384 kbps        5.1 / 48 kHz / 384 kbps
Dolby Digital Audio             Russian         192 kbps        2.0 / 48 kHz / 192 kbps
Dolby Digital Audio             Russian         192 kbps        2.0 / 48 kHz / 192 kbps
DTS-HD Master Audio             Russian         2904 kbps       5.1 / 48 kHz / 2904 kbps / 24-bit (DTS Core: 5.1 / 48 kHz / 1509 kbps / 24-bit)
Dolby Digital Audio             Russian         192 kbps        2.0 / 48 kHz / 192 kbps
Dolby Digital Audio             Ukrainian       192 kbps        2.0 / 48 kHz / 192 kbps
Dolby Digital Audio             Ukrainian       192 kbps        2.0 / 48 kHz / 192 kbps
Dolby Digital Audio             Ukrainian       192 kbps        2.0 / 48 kHz / 192 kbps
DTS-HD Master Audio             English         2171 kbps       5.1 / 48 kHz / 2171 kbps / 24-bit (DTS Core: 5.1 / 48 kHz / 1509 kbps / 24-bit)
Dolby Digital Audio             English         192 kbps        2.0 / 48 kHz / 192 kbps / DN -4dB / Dolby Surround

SUBTITLES:

Codec                           Language        Bitrate         Description     
-----                           --------        -------         -----------     
Presentation Graphics           Russian         27,576 kbps                     
Presentation Graphics           English         38,221 kbps                     

FILES:

Name            Time In         Length          Size            Total Bitrate   
----            -------         ------          ----            -------------   
00000.M2TS      0:00:00.000     1:30:08.032     24 761 167 872  36 636         

CHAPTERS:

Number          Time In         Length          Avg Video Rate  Max 1-Sec Rate  Max 1-Sec Time  Max 5-Sec Rate  Max 5-Sec Time  Max 10Sec Rate  Max 10Sec Time  Avg Frame Size  Max Frame Size  Max Frame Time 
------          -------         ------          --------------  --------------  --------------  --------------  --------------  --------------  --------------  --------------  --------------  -------------- 
1               0:00:00.000     0:04:37.235     23 503 kbps     36 673 kbps     00:04:18.549    27 842 kbps     00:00:19.477    25 925 kbps     00:00:19.477    122 516 bytes   549 073 bytes   00:00:19.853   
2               0:04:37.235     0:08:53.366     23 641 kbps     32 827 kbps     00:13:14.460    26 125 kbps     00:10:44.810    25 178 kbps     00:13:05.409    123 252 bytes   506 801 bytes   00:12:51.479   
3               0:13:30.601     0:08:12.282     24 912 kbps     32 183 kbps     00:20:16.214    27 704 kbps     00:19:26.039    26 918 kbps     00:19:26.206    129 878 bytes   528 235 bytes   00:21:34.876   
4               0:21:42.884     0:06:05.949     24 375 kbps     31 560 kbps     00:25:03.418    26 687 kbps     00:27:12.005    25 841 kbps     00:27:06.916    127 078 bytes   496 748 bytes   00:26:06.523   
5               0:27:48.833     0:05:34.083     23 819 kbps     31 067 kbps     00:29:27.390    26 127 kbps     00:30:44.092    24 756 kbps     00:29:18.423    124 183 bytes   457 486 bytes   00:29:53.416   
6               0:33:22.917     0:05:27.327     23 961 kbps     35 573 kbps     00:37:29.497    25 930 kbps     00:36:26.809    25 141 kbps     00:37:29.372    124 921 bytes   581 589 bytes   00:37:29.705   
7               0:38:50.244     0:08:20.833     23 988 kbps     29 857 kbps     00:41:35.034    25 486 kbps     00:42:21.247    25 226 kbps     00:42:50.234    125 063 bytes   487 247 bytes   00:39:53.766   
8               0:47:11.078     0:04:07.038     24 511 kbps     33 529 kbps     00:48:14.141    26 400 kbps     00:49:51.238    25 745 kbps     00:49:51.029    127 790 bytes   433 861 bytes   00:48:14.308   
9               0:51:18.116     0:07:38.125     23 845 kbps     31 662 kbps     00:51:23.789    26 217 kbps     00:51:21.328    25 334 kbps     00:58:17.785    124 317 bytes   565 100 bytes   00:58:18.620   
10              0:58:56.241     0:04:55.795     24 387 kbps     33 628 kbps     01:01:38.069    28 631 kbps     01:01:44.117    27 755 kbps     01:01:38.069    127 142 bytes   472 901 bytes   01:00:37.508   
11              1:03:52.036     0:05:07.056     24 290 kbps     31 230 kbps     01:08:22.014    26 151 kbps     01:08:44.620    25 413 kbps     01:08:33.484    126 636 bytes   474 226 bytes   01:08:59.093   
12              1:08:59.093     0:05:52.476     24 146 kbps     34 978 kbps     01:09:13.315    26 309 kbps     01:13:25.442    25 456 kbps     01:14:30.924    125 888 bytes   479 902 bytes   01:12:56.163   
13              1:14:51.570     0:02:38.033     24 578 kbps     31 389 kbps     01:16:24.538    26 432 kbps     01:16:46.268    25 828 kbps     01:16:36.800    128 139 bytes   497 070 bytes   01:15:09.213   
14              1:17:29.603     0:04:33.731     24 026 kbps     33 797 kbps     01:21:40.020    26 510 kbps     01:20:15.435    25 610 kbps     01:20:12.724    125 261 bytes   487 353 bytes   01:20:41.670   
15              1:22:03.335     0:02:34.778     24 026 kbps     36 456 kbps     01:22:03.835    27 060 kbps     01:22:03.918    25 437 kbps     01:22:03.793    125 258 bytes   455 960 bytes   01:22:41.748   
16              1:24:38.113     0:05:28.662     21 381 kbps     30 643 kbps     01:29:58.935    27 078 kbps     01:29:59.227    24 736 kbps     01:29:52.970    111 473 bytes   435 410 bytes   01:24:46.790   
17              1:30:06.776     0:00:01.256     4 kbps          0 kbps          00:00:00.000    0 kbps          00:00:00.000    0 kbps          00:00:00.000    148 bytes       148 bytes       01:30:06.818   

STREAM DIAGNOSTICS:

File            PID             Type            Codec           Language                Seconds                 Bitrate                 Bytes           Packets         
----            ---             ----            -----           --------                --------------          --------------          -------------   -----           
00000.M2TS      4113 (0x1011)   0x1B            AVC                                     5406,943                23 949                  16 186 496 864  88 046 140     
00000.M2TS      4352 (0x1100)   0x81            AC3             rus (Russian)           5406,943                448                     302 849 792     1 690 010       
00000.M2TS      4353 (0x1101)   0x86            DTS-HD MA       rus (Russian)           5406,943                2 780                   1 879 221 300   11 060 487     
00000.M2TS      4354 (0x1102)   0x81            AC3             rus (Russian)           5406,943                384                     259 584 000     1 521 008       
00000.M2TS      4355 (0x1103)   0x81            AC3             rus (Russian)           5406,943                192                     129 792 768     845 005         
00000.M2TS      4356 (0x1104)   0x81            AC3             rus (Russian)           5406,943                192                     129 792 768     845 005         
00000.M2TS      4357 (0x1105)   0x86            DTS-HD MA       rus (Russian)           5406,943                2 904                   1 962 508 788   11 512 387     
00000.M2TS      4358 (0x1106)   0x81            AC3             rus (Russian)           5406,943                192                     129 792 768     845 005         
00000.M2TS      4359 (0x1107)   0x81            AC3             ukr (Ukrainian)         5406,943                192                     129 793 536     845 010         
00000.M2TS      4360 (0x1108)   0x81            AC3             ukr (Ukrainian)         5406,943                192                     129 793 536     845 010         
00000.M2TS      4361 (0x1109)   0x81            AC3             ukr (Ukrainian)         5406,943                192                     129 793 536     845 010         
00000.M2TS      4362 (0x110A)   0x86            DTS-HD MA       eng (English)           5406,943                2 171                   1 467 354 196   8 828 229       
00000.M2TS      4363 (0x110B)   0x81            AC3             eng (English)           5406,943                192                     129 793 536     845 010         
00000.M2TS      4608 (0x1200)   0x90            PGS             rus (Russian)           5406,943                28                      18 637 796      108 755         
00000.M2TS      4609 (0x1201)   0x90            PGS             eng (English)           5406,943                38                      25 832 513      149 575         

<---- END FORUMS PASTE ---->


Час пик 3 / Rush Hour 3

Год выпуска: 2007
Страна: США, Германия
Жанр: боевик, триллер, комедия, криминал
Продолжительность: 01:30:47
Перевод: Профессиональный (полное дублирование)
Язык субтитров: Русский, Украинский, Английский
Режиссер:
  • Бретт Рэтнер

В ролях:
  • Крис Такер, Джеки Чан, Макс фон Сюдов, Хироюки Санада, Иван Атталь, Ёуки Кудо, Ноэми Ленуар, Чжан Цзинчу, Ци Ма, Дэна Айви

Описание: Лос-анджелесского полицейского Джеймса Картера, допустившего грубую ошибку при аресте подозреваемого, переводят на гораздо менее престижную должность в дорожной полиции. Тем временем гонконгский полицейский инспектор Ли получает спецзадание: он должен охранять китайского посла Хана, который направляется в Лос-Анджелес, чтобы произнести там речь на саммите Всемирного уголовного суда.

Хан намеревается разоблачить интриги китайской Триады - самого опасного криминального синдиката в мире - и вывести на чистую воду преступных боссов. Представители Триады, разумеется, не дремлют. Они отправляют в Лос-Анджелес наемного убийцу, которому удается ранить посла в тот самый момент, когда он начинает произносить свою разоблачительную речь. Ли бросается вдогонку за преступником. Тем временем Картер, услышав по полицейскому радио сообщение о покушении на посла, мчится на место преступления... и, естественно, только путается под ногами у Ли.

Доп. информация:
Сохранены оригинальные главы как на Blu-ray.
Дорожки №2,3 получены наложением чистого голоса на центр декодированного DTS-HD MA.
РАЗДАЧА ОТ:
Качество: Blu-Ray Remux
Формат: BDMV
Видео кодек: VC-1
Аудио кодек: AC3, DTS-HD MA, DTS
Видео: 1920x1080 at 23.976 fps, VC-1, ~15859 kbps avg
Аудио#1: Russian: 48 kHz, AC3, 3/2 (L,C,R,l,r) + LFE ch, ~448.00 kbps avg |Дубляж, R5 (Мосфильм)|
Аудио#2: Russian: 48 kHz/24-bit, DTS-HD MA 7.1, ~5291.00 kbps avg |Одноголосый закадровый, А.Гаврилов|
Аудио#3: Russian: 48 kHz/24-bit, DTS-HD MA 7.1, ~5303.00 kbps avg |Одноголосый закадровый, В.Королев|
Аудио#4: English: 48 kHz/24-bit, DTS-HD MA 7.1, ~5234.00 kbps avg
Аудио#5: English: 48 kHz/24-bit, DTS, 2/0 (L,R) ch, ~255.00 kbps avg |Commentary with director Brett Ratner and writer Jeff Nathanson|
Disc Title: Rush Hour 3 2007 BDRemux 1080p_HDClub
Disc Size: 23 649 475 128 bytes
Protection: AACS
BD-Java: No
BDInfo: 0.5.8

Notes:

BDINFO HOME:
Cinema Squid
http://www.cinemasquid.com/blu-ray/tools/bdinfo

INCLUDES FORUMS REPORT FOR:
AVS Forum Blu-ray Audio and Video Specifications Thread
http://www.avsforum.com/avs-vb/showthread.php?t=1155731

********************
PLAYLIST: 00000.MPLS
********************

<--- BEGIN FORUMS PASTE --->

Код:

                                                                                                                Total   Video                                             
Title                                                           Codec   Length  Movie Size      Disc Size       Bitrate Bitrate Main Audio Track                          Secondary Audio Track
-----                                                           ------  ------- --------------  --------------  ------- ------- ------------------                        ---------------------
00000.MPLS                                                      VC-1    1:30:47 23 649 361 920  23 649 475 128  34,73   15,86   DD AC3 5.1 448Kbps                        DTS-HD Master 7.1 5291Kbps (48kHz/24-bit)


Код:



DISC INFO:

Disc Title:     Rush Hour 3 2007 BDRemux 1080p_HDClub
Disc Size:      23 649 475 128 bytes
Protection:     AACS
BD-Java:        No
BDInfo:         0.5.8

PLAYLIST REPORT:

Name:                   00000.MPLS
Length:                 1:30:47.477 (h:m:s.ms)
Size:                   23 649 361 920 bytes
Total Bitrate:          34,73 Mbps

VIDEO:

Codec                   Bitrate             Description     
-----                   -------             -----------     
VC-1 Video              15859 kbps          1080p / 23,976 fps / 16:9 / Advanced Profile 3

AUDIO:

Codec                           Language        Bitrate         Description     
-----                           --------        -------         -----------     
Dolby Digital Audio             Russian         448 kbps        5.1 / 48 kHz / 448 kbps / DN -4dB
DTS-HD Master Audio             Russian         5291 kbps       7.1 / 48 kHz / 5291 kbps / 24-bit (DTS Core: 5.1 / 48 kHz / 1509 kbps / 24-bit)
DTS-HD Master Audio             Russian         5303 kbps       7.1 / 48 kHz / 5303 kbps / 24-bit (DTS Core: 5.1 / 48 kHz / 1509 kbps / 24-bit)
DTS-HD Master Audio             English         5234 kbps       7.1 / 48 kHz / 5234 kbps / 24-bit (DTS Core: 5.1 / 48 kHz / 1509 kbps / 24-bit)
DTS Audio                       English         255 kbps        2.0 / 48 kHz / 255 kbps / 24-bit

SUBTITLES:

Codec                           Language        Bitrate         Description     
-----                           --------        -------         -----------     
Presentation Graphics           Russian         0,558 kbps                     
Presentation Graphics           Russian         29,130 kbps                     
Presentation Graphics           Ukrainian       27,979 kbps                     
Presentation Graphics           English         55,017 kbps                     

FILES:

Name            Time In         Length          Size            Total Bitrate   
----            -------         ------          ----            -------------   
00000.M2TS      0:00:00.000     1:30:47.477     23 649 361 920  34 731         

CHAPTERS:

Number          Time In         Length          Avg Video Rate  Max 1-Sec Rate  Max 1-Sec Time  Max 5-Sec Rate  Max 5-Sec Time  Max 10Sec Rate  Max 10Sec Time  Avg Frame Size  Max Frame Size  Max Frame Time 
------          -------         ------          --------------  --------------  --------------  --------------  --------------  --------------  --------------  --------------  --------------  -------------- 
1               0:00:00.000     0:05:06.556     15 887 kbps     26 243 kbps     00:04:41.656    20 973 kbps     00:00:01.126    19 374 kbps     00:00:01.126    83 021 bytes    375 503 bytes   00:00:25.483   
2               0:05:06.556     0:04:17.674     16 989 kbps     24 214 kbps     00:06:22.673    19 595 kbps     00:05:23.656    18 856 kbps     00:07:53.973    88 574 bytes    323 715 bytes   00:06:23.299   
3               0:09:24.230     0:02:39.366     17 340 kbps     21 376 kbps     00:11:26.310    19 403 kbps     00:09:49.005    19 188 kbps     00:11:26.310    90 402 bytes    366 269 bytes   00:09:26.941   
4               0:12:03.597     0:05:17.483     16 960 kbps     24 939 kbps     00:15:55.329    19 701 kbps     00:16:32.658    19 121 kbps     00:16:32.658    88 424 bytes    337 268 bytes   00:13:13.751   
5               0:17:21.080     0:03:23.036     17 251 kbps     22 982 kbps     00:19:06.603    19 807 kbps     00:17:35.012    19 331 kbps     00:17:30.048    89 940 bytes    291 901 bytes   00:17:36.472   
6               0:20:44.117     0:03:21.994     17 025 kbps     23 443 kbps     00:20:44.660    20 133 kbps     00:22:55.499    19 458 kbps     00:23:16.978    88 760 bytes    346 993 bytes   00:24:05.944   
7               0:24:06.111     0:05:42.549     15 869 kbps     23 125 kbps     00:25:10.467    19 461 kbps     00:25:46.086    18 875 kbps     00:25:10.842    82 733 bytes    425 445 bytes   00:24:07.112   
8               0:29:48.661     0:06:09.327     17 295 kbps     24 332 kbps     00:29:56.503    20 372 kbps     00:29:55.668    19 420 kbps     00:29:52.332    90 168 bytes    443 920 bytes   00:29:57.128   
9               0:35:57.989     0:05:58.483     17 381 kbps     24 133 kbps     00:37:09.810    20 050 kbps     00:39:14.769    19 392 kbps     00:39:14.727    90 615 bytes    398 847 bytes   00:38:56.292   
10              0:41:56.472     0:05:51.850     16 257 kbps     22 345 kbps     00:46:40.631    19 784 kbps     00:42:27.711    19 116 kbps     00:42:23.707    84 756 bytes    314 275 bytes   00:45:52.499   
11              0:47:48.323     0:06:28.889     17 162 kbps     24 409 kbps     00:51:57.656    20 532 kbps     00:52:55.171    19 253 kbps     00:50:27.315    89 477 bytes    319 977 bytes   00:49:35.681   
12              0:54:17.212     0:11:33.776     16 791 kbps     24 878 kbps     00:59:48.376    20 218 kbps     01:00:59.072    19 102 kbps     01:00:56.986    87 538 bytes    329 517 bytes   01:03:44.487   
13              1:05:50.988     0:05:15.523     17 042 kbps     23 744 kbps     01:06:54.885    20 387 kbps     01:10:05.534    19 414 kbps     01:06:01.916    88 850 bytes    337 466 bytes   01:09:09.353   
14              1:11:06.512     0:04:08.248     17 445 kbps     25 747 kbps     01:14:45.063    20 347 kbps     01:14:43.103    19 063 kbps     01:13:59.560    90 950 bytes    386 413 bytes   01:13:00.584   
15              1:15:14.760     0:06:29.096     17 795 kbps     24 714 kbps     01:17:23.972    20 475 kbps     01:18:49.057    19 440 kbps     01:17:49.247    92 773 bytes    371 507 bytes   01:18:50.267   
16              1:21:43.857     0:09:03.620     6 115 kbps      12 571 kbps     01:23:13.822    11 648 kbps     01:23:10.026    11 087 kbps     01:23:09.734    31 975 bytes    239 617 bytes   01:23:13.863   

STREAM DIAGNOSTICS:

File            PID             Type            Codec           Language                Seconds                 Bitrate                 Bytes           Packets         
----            ---             ----            -----           --------                --------------          --------------          -------------   -----           
00000.M2TS      4113 (0x1011)   0xEA            VC-1                                    5447,359                15 859                  10 798 862 765  58 768 301     
00000.M2TS      4352 (0x1100)   0x81            AC3             rus (Russian)           5447,359                448                     305 034 240     1 702 200       
00000.M2TS      4353 (0x1101)   0x86            DTS-HD MA       rus (Russian)           5447,359                5 291                   3 602 642 248   20 428 502     
00000.M2TS      4354 (0x1102)   0x86            DTS-HD MA       rus (Russian)           5447,359                5 304                   3 611 273 112   20 475 179     
00000.M2TS      4355 (0x1103)   0x86            DTS-HD MA       eng (English)           5447,359                5 234                   3 563 865 932   20 217 699     
00000.M2TS      4356 (0x1104)   0x82            DTS             eng (English)           5447,359                255                     173 638 680     1 021 404       
00000.M2TS      4608 (0x1200)   0x90            PGS             rus (Russian)           5447,359                1                       379 740         2 200           
00000.M2TS      4609 (0x1201)   0x90            PGS             rus (Russian)           5447,359                29                      19 835 344      116 053         
00000.M2TS      4610 (0x1202)   0x90            PGS             ukr (Ukrainian)         5447,359                28                      19 051 670      112 727         
00000.M2TS      4611 (0x1203)   0x90            PGS             eng (English)           5447,359                55                      37 462 994      214 858         

<---- END FORUMS PASTE ---->

info [Профиль]  [ЛС] 

b15h0p

Пол: Пол:Муж

Стаж: 5 лет 4 месяца

Сообщений: 21

Россия
Рейтинг

post 28-Фев-2016 19:53 (спустя 17 часов) [-]0[+]

[Цитировать] 

Отличные фильмы, пересматриваю иногда их. Добрые и хорошие комедии. Помню, первая часть на VHS была! Эх... были времена! Ну а сейчас? Естественно забираю уже))))
info [Профиль]  [ЛС] 
Показать сообщения:    
Ответить на тему

Текущее время: 09-Дек 00:14

Часовой пояс: GMT + 4



Вы не можете начинать темы
Вы не можете отвечать на сообщения
Вы не можете редактировать свои сообщения
Вы не можете удалять свои сообщения
Вы не можете голосовать в опросах
Вы не можете прикреплять файлы к сообщениям
Вы не можете скачивать файлы