Ошибка

Новый Человек-Паук / Spider-Man: The New Animated Series / Серии: 1-13 из 13 (Себастьян Бродин, Брэндон Виетти / Sebastian Brodin, Brandon Vietti) [2003, США, Приключения, семейный, DVB] Dub

Ответить на тему
 
Автор Сообщение

DARKAN

Пол: Пол:Муж

Стаж: 3 года 4 месяца

Сообщений: 56

Россия
Рейтинг

post 24-Фев-2016 03:36 0[+]

[Цитировать] 

Новый Человек-Паук

Оригинальное название: Spider-Man: The New Animated Series
Год выпуска: 2003
Страна: США
Жанр: Приключения, семейный
Серии: 1-13 из 13
Продолжительность: 13 серий по 20 минут
Перевод: Профессиональный (полное дублирование)
Режиссёры:
  • Себастьян Бродин, Брэндон Виетти / Sebastian Brodin, Brandon Vietti
Роли озвучивали:
  • Нил Патрик Харрис, Лиза Лоб, Йен Зиринг, СуЧин Пак, Анджелл Брукс, Кит Кэрредин, Эдвард Эснер, Рино Романо, Итэн Эмбри, Джули Натансон, Майкл Дорн, Джеффри Комбс и другие.

Описание:
После укуса радиоактивного паука Питер Паркер обнаруживает, что обладает паучьей суперсилой. Надеясь, что эти новые возможности помогут ему разбогатеть и прославиться, он забывает о других и, отказавшись помочь полицейскому в поимке убегающего преступника, становится причиной смерти своего дяди Бена. Осознав всю глубину своего падения, он решает использовать свои способности для борьбы с преступностью и становится супергероем Человеком-Пауком. Питеру приходится совмещать борьбу с суперзлодеями со своей личной жизнью, работой фотокорреспондентом в Дейли Багл и противостоянием с главным редактором, утверждающим, что Человек-Паук — это преступник, который должен сидеть в тюрьме.
Качество: DVB
Формат: TS
Видео: AVC, 720x576, 25.000 fps, ~ 3.000 Kbps
Аудио: MP2, 48.0 KHz, 2 ch, 256 Kbps
Друг Питера Паркера превращается в монстра Электро, который терроризирует студенческий городок. Только Человек-Паук может его остановить и прекратить этот ужас.
Мастера боевых искусств Шикату посылают, чтобы поймать Человека-Паука для очень своеобразной коллекции редких животных. Но Шиката понимает, что так просто ей не удастся поймать его и им предстоит сражаться, пока в живых не останется только один из них.
Преподаватель Питера, профессор Коннорс, проводил эксперименты с ДНК рептилий и ввёл себе пару клеток. Со временем они превратили его в самое озлобленное и ужасное чудовище. И теперь Человек-Паук должен остановить профессора, так как он жаждет мести всем, причинившим ему боль, в том числе и Питеру.
Человек-Паук гоняется за странной девушкой Талон, которая совершает рискованные ограбления одно за одним. Пауку становится ясно, кто его враг, когда он узнаёт, что это девушка его лучшего друга Гарри…
Группа террористов захватывает заложников, среди которых Питер. Им нужно одно — Человек-Паук. И теперь Питеру предстоит проявить всю свою сноровку и изобретательность, чтобы освободить людей и не выдать себя.
Однокурсница Питера — Кристина изобретает прибор для «чтения мыслей», от которого ей начинает казаться, что Человек-Паук с ней разговаривает. Тем временем, Мэри Джейн пытается упросить Питера выразить его мысли на бумаге.
Электро возвращается. Он хочет, чтобы Салли стала такой же, как он, и они были вместе всегда. Успеет ли Человек-Паук помешать ему или Салли станет монстром?
Человек-Паук обнаруживает кассету с информацией на наёмную убийцу Серебряный Соболь. И теперь она не остановится ни перед чем, чтобы заполучить кассету назад, даже перед убийством Мэри Джейн и Гарри…
Обманутый Человек-Паук крадёт для Амбала супер чип, разработанный специально для секретных спутников передач информации для международных финансовых рынков. И теперь ему предстоит вернуть этот чип назад.
Человек-Паук сражается с Турбо Джетом — современным Робин Гудом, крадущим у богатых и отдающим бедным. И наш герой практически побеждает, пока его, по ошибке, не принимают за сообщника Турбо Джета.
Доктор Зельнер тестирует свои «разработки» на Флэше. Эксперимент протекает хорошо, но на Флэше не отражаются физические эффекты. И тогда профессор решает найти нового подопытного — Человека-Паука.
Телепаты-близнецы Гайны сбегают из-под усиленной охраны, но Человек-Паук ловит их. Позже, когда Мэри Джейн узнаёт, что Питер Паркер — это и есть Человек-Паук, близнецы решают отомстить герою за проведённые годы в тюрьме и отравляют Мэри Джейн. Теперь очередь Человека-Паука мстить…
Человек-Паук понимает, что его обманули, заставив поверить, что Мэри Джейн умерла. Питер пытается расквитаться с близнецами, но из-за способностей он снова попадает в ловушку. Но в этот раз близкие Человека-Паука ранены смертельно. Сможет ли теперь он снять свой костюм или позволит умереть близким людям…
 
General
ID : 1 (0x1)
Complete name : D:\IPTV\Человек-Паук (2003)\Spider-Man.e01.ts
Format : MPEG-TS
File size : 583 MiB
Duration : 20mn 36s
Overall bit rate mode : Variable
Overall bit rate : 3 956 Kbps

Video
ID : 67 (0x43)
Menu ID : 1 (0x1)
Format : AVC
Format/Info : Advanced Video Codec
Format profile : High@L3
Format settings, CABAC : Yes
Format settings, ReFrames : 3 frames
Codec ID : 27
Duration : 20mn 36s
Bit rate : 3 502 Kbps
Width : 720 pixels
Height : 576 pixels
Display aspect ratio : 4:3
Frame rate : 25.000 fps
Standard : Component
Color space : YUV
Chroma subsampling : 4:2:0
Bit depth : 8 bits
Scan type : Interlaced
Scan type, store method : Interleaved fields
Scan order : Top Field First
Bits/(Pixel*Frame) : 0.338
Stream size : 516 MiB (89%)
Color range : Limited
Color primaries : BT.601 PAL
Transfer characteristics : BT.470 System B, BT.470 System G
Matrix coefficients : BT.601

Audio
ID : 68 (0x44)
Menu ID : 1 (0x1)
Format : MPEG Audio
Format version : Version 1
Format profile : Layer 2
Codec ID : 3
Duration : 20mn 36s
Bit rate mode : Constant
Bit rate : 256 Kbps
Channel(s) : 2 channels
Sampling rate : 48.0 KHz
Compression mode : Lossy
Stream size : 37.7 MiB (6%)
Language : English
info [Профиль]  [ЛС] 
Показать сообщения:    
Ответить на тему

Текущее время: 08-Дек 04:19

Часовой пояс: GMT + 4



Вы не можете начинать темы
Вы не можете отвечать на сообщения
Вы не можете редактировать свои сообщения
Вы не можете удалять свои сообщения
Вы не можете голосовать в опросах
Вы не можете прикреплять файлы к сообщениям
Вы не можете скачивать файлы