Ошибка

Гримгал пепла и иллюзий / Hai to Gensou no Grimgar [TV] [1-12 из 12] [2016] [драма, приключения, экшен, фэнтези ] [HDTVRip] [720p] [Субтитры (JAP)]

Ответить на тему
 
Автор Сообщение

anoningen

Стаж: 3 года 6 месяцев

Сообщений: 326

Самоа
Рейтинг

post 18-Фев-2016 01:02 3[+]

[Цитировать] 

Гримгал пепла и иллюзий
Hai to Gensou no Grimgar | Grimgar of Fantasy and Ash

Год выпуска:
2016 г.
Тип: TV
Жанр: приключения, фэнтези
Режиссер: Накамура Рёсукэ
Автор оригинала: Дзюмондзи Ао
Студия:
Продолжительность: 12 эп. по 25 мин
Русские субтитры: ASS, внешним файлом

Субтитры 1: I.D.A. (1-11)
Переводчик: Yoru
Редактор: Sandy Keat, Olivia Dei

Субтитры 2: Sovetromantica (1-12)
Переводчик: BZ
Редактор/Тайм-код/Оформление: Xander

Субтитры 3: YakuSub Studio (1-12)
Переводчик: SeshaRim
Редактор: Aero
Редактор: Red-blue_heart
Редактор/Тайм-код/Оформление: Helge

Описание: Почему мы здесь? Зачем всё это?
Не успел Харухиро понять, что происходит, как его окутала тьма. Почему он тут? Где он? Он до сих пор не нашёл ответы. Люди вокруг находятся в том же положении: никто не помнит ничего, кроме собственного имени. Выйдя наконец из мрака, они ступают на землю неизвестного мира, похожего на видео-игру. В целях выживания Харухиро объединяется с другими, учится драться и становится запасным в боевом отряде, вступившим в мир Гримгал. Что ждёт их в этом новом мире не знает никто...
Это повесть о приключениях, рожденных из пепла.
Автор рипа: Ohys-Raws
Качество: HDTVRip
Формат видео: MPEG-4
Видео: AVC, 8 бит, 1280x720; 23.976 кадра/сек; 2149 Кбит/сек, (16:9)
Аудио: AAC, 48,0 КГц, 196 Кбит/сек, 2 канала
Общее
Полное имя : G:\Anime\Hai to Gensou no Grimgar\[Ohys-Raws] Hai to Gensou no Grimgar - 01 (AT-X 1280x720 x264 AAC).mp4
Формат : MPEG-4
Профиль формата : Base Media
Идентификатор кодека : isom (isom/avc1)
Размер файла : 403 Мбайт
Продолжительность : 24 м.
Режим общего битрейта : Переменный
Общий поток : 2349 Кбит/сек
Дата кодирования : UTC 2016-01-10 16:06:09
Дата пометки : UTC 2016-01-10 16:06:09

Видео
Идентификатор : 1
Формат : AVC
Формат/Информация : Advanced Video Codec
Профиль формата : Main@L4.1
Параметр CABAC формата : Да
Параметр ReFrames формата : 4 кадра
Идентификатор кодека : avc1
Идентификатор кодека/Информация : Advanced Video Coding
Продолжительность : 24 м.
Битрейт : 2149 Кбит/сек
Максимальный битрейт : 10,9 Мбит/сек
Ширина : 1280 пикселей
Высота : 720 пикселей
Соотношение сторон : 16:9
Режим частоты кадров : Постоянный
Частота кадров : 23,976 (24000/1001) кадра/сек
Цветовое пространство : YUV
Субдискретизация насыщенности : 4:2:0
Битовая глубина : 8 бит
Тип развёртки : Прогрессивная
Бит/(Пиксели*Кадры) : 0.097
Размер потока : 369 Мбайт (91%)
Библиотека кодирования : x264 core 148 r2638 7599210
Настройки программы : cabac=1 / ref=3 / deblock=1:0:0 / analyse=0x1:0x111 / me=hex / subme=7 / psy=1 / psy_rd=1.00:0.00 / mixed_ref=1 / me_range=16 / chroma_me=1 / trellis=1 / 8x8dct=0 / cqm=0 / deadzone=21,11 / fast_pskip=1 / chroma_qp_offset=-2 / threads=12 / lookahead_threads=2 / sliced_threads=0 / nr=0 / decimate=1 / interlaced=0 / bluray_compat=0 / constrained_intra=0 / bframes=3 / b_pyramid=2 / b_adapt=1 / b_bias=0 / direct=1 / weightb=1 / open_gop=0 / weightp=2 / keyint=240 / keyint_min=1 / scenecut=40 / intra_refresh=0 / rc_lookahead=40 / rc=crf / mbtree=1 / crf=20.0 / qcomp=0.60 / qpmin=0 / qpmax=69 / qpstep=4 / ip_ratio=1.40 / aq=1:1.50
Дата кодирования : UTC 2016-01-10 16:06:09
Дата пометки : UTC 2016-01-10 16:06:11
Цветовой диапазон : Limited
Основные цвета : BT.709
Характеристики трансфера : BT.709
Коэффициенты матрицы : BT.709

Аудио
Идентификатор : 2
Формат : AAC
Формат/Информация : Advanced Audio Codec
Профиль формата : LC
Идентификатор кодека : 40
Продолжительность : 24 м.
Вид битрейта : Переменный
Битрейт : 196 Кбит/сек
Максимальный битрейт : 243 Кбит/сек
Каналы : 2 канала
Расположение каналов : Front: L R
Частота : 48,0 КГц
Частота кадров : 46,875 кадров/сек (1024 spf)
Метод сжатия : С потерями
Размер потока : 33,7 Мбайт (8%)
Язык : Japanese
Дата кодирования : UTC 2016-01-10 15:55:33
Дата пометки : UTC 2016-01-10 16:06:11
31.03.2016 Добавлена 12 серия.
info [Профиль]  [ЛС] 

ffs2001

Стаж: 5 лет 1 месяц

Сообщений: 37

Рейтинг

post 20-Фев-2016 11:51 (спустя 2 дня 10 часов) [-]2[+]

[Цитировать] 

Обомлеть.
Они сделали "Союз серокрылых" боевиком в ДнД-сеттинге с отпадной рисовкой и кучей фансервиса!
Практически "идеальное аниме", не хватает только ОБЧР/меха и ПРЕВОЗМОГАТ.
info [Профиль]  [ЛС] 

anoningen

Стаж: 3 года 6 месяцев

Сообщений: 326

Самоа
Рейтинг

post 23-Фев-2016 01:23 (спустя 2 дня 13 часов) [-]0[+]

[Цитировать] 

Добавил 7 серию и субтитры от Sovetromantica и YakuSub Studio. Теперь субтитры лежат в папках с названиями команд.
Раздавать начну после 19.00 по Москве.
info [Профиль]  [ЛС] 

realgrimma

Стаж: 6 лет 9 месяцев

Сообщений: 43

Рейтинг

post 23-Фев-2016 21:30 (спустя 20 часов) [-]1[+]

[Цитировать] 

ffs2001 писал(а):

Обомлеть.
Они сделали "Союз серокрылых" боевиком в ДнД-сеттинге с отпадной рисовкой и кучей фансервиса!
Практически "идеальное аниме", не хватает только ОБЧР/меха и ПРЕВОЗМОГАТ.
Не хватает лысого мужика и девочки с 7-ым размером. Почти идеал... Почти
info [Профиль]  [ЛС] 

anoningen

Стаж: 3 года 6 месяцев

Сообщений: 326

Самоа
Рейтинг

post 02-Мар-2016 20:41 (спустя 7 дней) [-]0[+]

[Цитировать] 

Добавил 8 серию.
info [Профиль]  [ЛС] 

anoningen

Стаж: 3 года 6 месяцев

Сообщений: 326

Самоа
Рейтинг

post 08-Мар-2016 19:36 (спустя 5 дней) [-]0[+]

[Цитировать] 

Добавил 9 серию.
info [Профиль]  [ЛС] 

anoningen

Стаж: 3 года 6 месяцев

Сообщений: 326

Самоа
Рейтинг

post 15-Мар-2016 00:06 (спустя 6 дней) [-]0[+]

[Цитировать] 

Добавил 10 серию.
info [Профиль]  [ЛС] 

anoningen

Стаж: 3 года 6 месяцев

Сообщений: 326

Самоа
Рейтинг

post 21-Мар-2016 23:10 (спустя 6 дней) [-]0[+]

[Цитировать] 

Добавил 11 серию.
info [Профиль]  [ЛС] 

ffs2001

Стаж: 5 лет 1 месяц

Сообщений: 37

Рейтинг

post 31-Мар-2016 14:17 (спустя 9 дней) [-]0[+]

[Цитировать] 

Последняя серия будет?
info [Профиль]  [ЛС] 

anoningen

Стаж: 3 года 6 месяцев

Сообщений: 326

Самоа
Рейтинг

post 31-Мар-2016 21:01 (спустя 6 часов) [-]1[+]

[Цитировать] 

Добавил 12 серию.
info [Профиль]  [ЛС] 

AzGeroth

Пол: Пол:Муж

Стаж: 6 лет 10 месяцев

Сообщений: 87

СССР
Рейтинг

post 04-Апр-2016 13:13 (спустя 3 дня) [-]0[+]

[Цитировать] 

Отличная анимеха! Посмотрел на одном дыхании. Автору респект!

_________________
Мудрость - это не морщины, а извилины.
info [Профиль]  [ЛС] 

iiycToTA

Пол: Пол:Муж

Стаж: 6 лет 3 месяца

Сообщений: 122

Рейтинг

post 20-Апр-2016 04:48 (спустя 15 дней) [-]0[+]

[Цитировать] 

ну в целом не плохо, на раз посмотреть
info [Профиль]  [ЛС] 
Показать сообщения:    
Ответить на тему

Текущее время: 08-Дек 20:05

Часовой пояс: GMT + 4



Вы не можете начинать темы
Вы не можете отвечать на сообщения
Вы не можете редактировать свои сообщения
Вы не можете удалять свои сообщения
Вы не можете голосовать в опросах
Вы не можете прикреплять файлы к сообщениям
Вы не можете скачивать файлы