Ошибка

Ковчег / The Ark / Arka (Гжегож Йонкайтис / Grzegorz Jonkajtys) [2007 г., мультфильм, короткометражный]

Ответить на тему
 
Автор Сообщение

Wootz

Пол: Пол:Муж

Стаж: 7 лет 2 месяца

Сообщений: 133

Сирия
Рейтинг

post 12-Фев-2016 21:05 1[+]

[Цитировать] 

The Ark / Arka
Ковчег


Год выпуска: 2007
Страна: Польша
Студия: Platige Image
Жанр: мультфильм, короткометражный
Продолжительность: 00:08:14
Перевод: Не требуется

Режиссер: Гжегож Йонкайтис / Grzegorz Jonkajtys

Описание:
Неизвестный вирус уничтожил почти все человечество. Не обращая внимания на истинную природу болезни, немногие, оставшиеся в живых, пытаются спастись в море. На огромных кораблях они отправляются на поиски необитаемой земли. Так начинается Исход, под предводительством одного человека…
Качество: WEB-DL 720p
Формат: MP4
Видео: MPEG4 Video (H264) 1280x720 25fps 22987 Кбит/сек
Аудио: AAC 48000Hz stereo 190 Кбит/сек



Код:

Общее
Полное имя                               : ...\ark-720p.mp4
Формат                                   : MPEG-4
Профиль формата                          : Base Media
Идентификатор кодека                     : isom (isom/mp41)
Размер файла                             : 1,33 Гбайт
Продолжительность                        : 8 м. 14 с.
Режим общего битрейта                    : Постоянный
Общий поток                              : 23,2 Мбит/сек
Дата кодирования                         : UTC 2012-10-15 10:33:44
Дата пометки                             : UTC 2012-10-15 10:33:44

Видео
Идентификатор                            : 1
Формат                                   : AVC
Формат/Информация                        : Advanced Video Codec
Профиль формата                          : Baseline@L3.2
Параметр CABAC формата                   : Нет
Параметр ReFrames формата                : 1 кадр
Параметр GOP формата                     : M=1, N=33
Идентификатор кодека                     : avc1
Идентификатор кодека/Информация          : Advanced Video Coding
Продолжительность                        : 8 м. 14 с.
Продолжительность оригинала              : 8 м. 14 с.
Вид битрейта                             : Постоянный
Битрейт                                  : 23,0 Мбит/сек
Ширина                                   : 1280 пикселей
Высота                                   : 720 пикселей
Соотношение сторон                       : 16:9
Режим частоты кадров                     : Постоянный
Частота кадров                           : 25,000 кадров/сек
Стандарт вещания                         : PAL
Цветовое пространство                    : YUV
Субдискретизация насыщенности            : 4:2:0
Битовая глубина                          : 8 бит
Тип развёртки                            : Прогрессивная
Бит/(Пиксели*Кадры)                      : 0.998
Размер потока                            : 1,27 Гбайт (95%)
Размер потока оригинала                  : 1,32 Гбайт (99%)
Язык                                     : English
Дата кодирования                         : UTC 2012-10-15 10:33:44
Дата пометки                             : UTC 2012-10-15 10:33:44
Цветовой диапазон                        : Limited
mdhd_Duration                            : 494072

Аудио
Идентификатор                            : 2
Формат                                   : AAC
Формат/Информация                        : Advanced Audio Codec
Профиль формата                          : LC
Идентификатор кодека                     : 40
Продолжительность                        : 8 м. 14 с.
Вид битрейта                             : Постоянный
Битрейт                                  : 192 Кбит/сек
Номинальный битрейт                      : 128 Кбит/сек
Каналы                                   : 2 канала
Расположение каналов                     : Front: L R
Частота                                  : 48,0 КГц
Частота кадров                           : 46,875 кадров/сек (1024 spf)
Метод сжатия                             : С потерями
Размер потока                            : 11,2 Мбайт (1%)
Язык                                     : English
Дата кодирования                         : UTC 2012-10-15 10:33:44
Дата пометки                             : UTC 2012-10-15 10:33:44
mdhd_Duration                            : 494047

info [Профиль]  [ЛС] 

Haffman

Пол: Пол:Муж

Стаж: 4 года

Сообщений: 61

Япония
Рейтинг

post 12-Фев-2016 23:56 (спустя 2 часа 50 минут) [-]4[+]

[Цитировать] 

kolob_188 какая же рожа страшная
info [Профиль]  [ЛС] 

Greyf24

Стаж: 2 года

Сообщений: 342

Предупреждений: 1

Зимбабве
Рейтинг

post 13-Фев-2016 00:00 (спустя 4 минуты) [-]-16[+]

[Цитировать] 

На скринах уже лютый спойлер. В начале - вирус атакует клетки. В конце - та же композиция, но корабли атакуют остров. Что как бы намекает, что люди - сами вирус.
info [Профиль]  [ЛС] 

terichec

Пол: Пол:Муж

Стаж: 3 года 10 месяцев

Сообщений: 12

Россия
Рейтинг

post 13-Фев-2016 02:18 (спустя 2 часа 18 минут) [-]9[+]

[Цитировать] 

Greyf24 писал(а):

На скринах уже лютый спойлер. В начале - вирус атакует клетки. В конце - та же композиция, но корабли атакуют остров. Что как бы намекает, что люди - сами вирус.
Если бы ты не написал этого,я бы в жизни не понял.Спасибо..
info [Профиль]  [ЛС] 

Deathcore

Пол: Пол:Муж

Стаж: 5 лет 4 месяца

Сообщений: 73

Украина
Рейтинг

post 13-Фев-2016 16:52 (спустя 14 часов) [-]1[+]

[Цитировать] 

Greyf24 писал(а):

На скринах уже лютый спойлер. В начале - вирус атакует клетки. В конце - та же композиция, но корабли атакуют остров. Что как бы намекает, что люди - сами вирус.
написал это уже после просмотра мульта?
не зная что и к чему - не особо то и понятно.

_________________
info [Профиль]  [ЛС] 

zzartex

Пол: Пол:Муж

Стаж: 7 лет 4 месяца

Сообщений: 344

Рейтинг

post 13-Фев-2016 17:30 (спустя 37 минут) [-]0[+]

[Цитировать] 

Greyf24 писал(а):

На скринах уже лютый спойлер. В начале - вирус атакует клетки. В конце - та же композиция, но корабли атакуют остров. Что как бы намекает, что люди - сами вирус.
помогаешь ты людям сюжеты по комментариям смотреть))

_________________
info [Профиль]  [ЛС] 

topsex

Пол: Пол:Муж

Стаж: 6 лет 8 месяцев

Сообщений: 407

СССР
Рейтинг

post 14-Фев-2016 00:34 (спустя 7 часов) [-]0[+]

[Цитировать] 

С такими комментариями короткий метр становится еще короче, вплоть до одной строки...

_________________
i5@4.0Ghz, 8Gb RAM, Radeon R9 280x 3Gb, SSD, W8.1 x64 \ Xbox 360
info [Профиль]  [ЛС] 

Greyf24

Стаж: 2 года

Сообщений: 342

Предупреждений: 1

Зимбабве
Рейтинг

post 14-Фев-2016 16:53 (спустя 16 часов) [-]0[+]

[Цитировать] 

Deathcore писал(а):

Greyf24 писал(а):

На скринах уже лютый спойлер. В начале - вирус атакует клетки. В конце - та же композиция, но корабли атакуют остров. Что как бы намекает, что люди - сами вирус.
написал это уже после просмотра мульта?
не зная что и к чему - не особо то и понятно.
Я не смотрел, мы можешь в моем профиле глянуть и убедиться, что я его не качал.
info [Профиль]  [ЛС] 
Показать сообщения:    
Ответить на тему

Текущее время: 03-Дек 02:26

Часовой пояс: GMT + 4



Вы не можете начинать темы
Вы не можете отвечать на сообщения
Вы не можете редактировать свои сообщения
Вы не можете удалять свои сообщения
Вы не можете голосовать в опросах
Вы не можете прикреплять файлы к сообщениям
Вы не можете скачивать файлы