Ошибка

Савва. Сердце воина (Максим Фадеев) [2015, Мультфильм, приключения, фэнтези, семейный, BDRemux 1080p]

Ответить на тему
 
Автор Сообщение

karlmenni

Пол: Пол:Муж

Стаж: 1 год 11 месяцев

Сообщений: 1236

Россия
Рейтинг

post 10-Фев-2016 17:00 1[+]

[Цитировать] 

Савва. Сердце воина


Год выпуска: 2015
Страна: Россия
Студия: Глюкоза Продакшн, Art Pictures Studio
Жанр: Мультфильм, приключения, фэнтези, семейный
Продолжительность: 01:27:20
Перевод: Оригинал [Лицензия]
Субтитры:
Нет
Режиссёр: Максим Фадеев
В ролях: Константин Хабенский, Фёдор Бондарчук, Армен Джигарханян, Григорий Лепс, Сергей Шнуров, Михаил Галустян, Глюкоза, Сергей Гармаш, Лолита Милявская, Николай Басков
История о мальчике Савве десяти лет, который живёт в маленькой лесной деревне. Когда-то деревню от врагов защищали благородные белые волки. Но однажды волки исчезли и на деревню напала банда свирепых Гиен. Савве удаётся сбежать в лес, где он знакомится с Ангой — последним белым волком.

Анга рассказывает Савве о могущественном Волшебнике, который живёт на горе и может помочь Савве освободить его деревню. Но, к сожалению, эту гору окружает огромное войско, под предводительством злобной Мамы ЖоЗи — трёхголовой королевы обезьян.

Справляясь с непреодолимыми трудностями, Савва и Анга начинают свой длинный и опасный путь на гору. По пути к ним присоединяются и другие путешественники: Пусик — странное розовое пушистое существо; Фафл — самоуверенный тип, похожий на француза, который в действительности является заколдованным полубароном и вынужден носить на плече короля комаров; принцессу болотного племени Нанти и других. У всех есть свои личные причины, чтобы идти к Волшебнику. По пути к своей цели, друзьям предстоит преодолеть множество препятствий, узнать страшные тайны и вступить в битву с войском обезьян и коварной Мамой ЖоЗи.
Качество: BDRemux 1080p
Формат: MKV
Видео кодек: AVC
Видео: AVC, 1920x1080 (16:9), 24.000 fps, 21.5 Mbps (0.433 bit/pixel)
Аудио 1: AC-3, 48.0 KHz, 6 ch, 640 Kbps, CBR (Russian)
Аудио 2: DTS, 48.0 KHz, 6 ch, 1 510 Kbps, CBR (Russian)




          

Код:



Общее
Уникальный идентификатор                 : 231440416803855578020305339199712874084 (0xAE1DCD8B461D4BEB8969B1248EF34E64)
Полное имя                               : C:\MyFiles\FILM\Savva_BDRemux1080p.mkv
Формат                                   : Matroska
Версия формата                           : Version 4 / Version 2
Размер файла                             : 14,7 Гбайт
Продолжительность                        : 1 ч. 27 м.
Режим общего битрейта                    : Переменный
Общий поток                              : 24,2 Мбит/сек
Название фильма                          : Savva_BDRemux1080p
Дата кодирования                         : UTC 2016-02-10 11:46:36
Программа кодирования                    : mkvmerge v5.9.0 ('On The Loose') built on Dec 31 2012 17:36:59
Библиотека кодирования                   : libebml v1.3.0 + libmatroska v1.4.0

Видео
Идентификатор                            : 1
Формат                                   : AVC
Формат/Информация                        : Advanced Video Codec
Профиль формата                          : High@L4.1
Параметр CABAC формата                   : Да
Параметр ReFrames формата                : 4 кадра
Параметр GOP формата                     : M=3, N=24
Режим смешивания                         : Header stripping
Идентификатор кодека                     : V_MPEG4/ISO/AVC
Продолжительность                        : 1 ч. 27 м.
Вид битрейта                             : Переменный
Битрейт                                  : 21,5 Мбит/сек
Максимальный битрейт                     : 35,0 Мбит/сек
Ширина                                   : 1920 пикселей
Высота                                   : 1080 пикселей
Соотношение сторон                       : 16:9
Режим частоты кадров                     : Постоянный
Частота кадров                           : 24,000 кадра/сек
Стандарт вещания                         : NTSC
Цветовое пространство                    : YUV
Субдискретизация насыщенности            : 4:2:0
Битовая глубина                          : 8 бит
Тип развёртки                            : Прогрессивная
Бит/(Пиксели*Кадры)                      : 0.433
Размер потока                            : 13,1 Гбайт (89%)
Default                                  : Да
Forced                                   : Нет
Основные цвета                           : BT.709
Характеристики трансфера                 : BT.709
Коэффициенты матрицы                     : BT.709
colour_range                             : Limited

Аудио #1
Идентификатор                            : 2
Формат                                   : AC-3
Формат/Информация                        : Audio Coding 3
Расширение режима                        : CM (complete main)
Параметр Endianness формата              : Big
Режим смешивания                         : Header stripping
Идентификатор кодека                     : A_AC3
Продолжительность                        : 1 ч. 27 м.
Вид битрейта                             : Постоянный
Битрейт                                  : 640 Кбит/сек
Каналы                                   : 6 каналов
Расположение каналов                     : Front: L C R, Side: L R, LFE
Частота                                  : 48,0 КГц
Битовая глубина                          : 16 бит
Метод сжатия                             : С потерями
Размер потока                            : 400 Мбайт (3%)
Язык                                     : Russian
Default                                  : Да
Forced                                   : Нет

Аудио #2
Идентификатор                            : 3
Формат                                   : DTS
Формат/Информация                        : Digital Theater Systems
Режим                                    : 16
Параметр Endianness формата              : Big
Режим смешивания                         : Header stripping
Идентификатор кодека                     : A_DTS
Продолжительность                        : 1 ч. 27 м.
Вид битрейта                             : Постоянный
Битрейт                                  : 1510 Кбит/сек
Каналы                                   : 6 каналов
Расположение каналов                     : Front: L C R, Side: L R, LFE
Частота                                  : 48,0 КГц
Битовая глубина                          : 24 бит
Метод сжатия                             : С потерями
Размер потока                            : 943 Мбайт (6%)
Язык                                     : Russian
Default                                  : Нет
Forced                                   : Нет


info [Профиль]  [ЛС] 

post 10-Фев-2016 23:47 (спустя 6 часов) [-]0[+]

Топик был перенесен из форума Мультфильмы (HD Video) в форум Новинки 2015-2016 (Web-DL, DVD, HD DVD, Blu-ray, HD Rips)

LyaKich
 

post 21-Июл-2016 10:30 (спустя 5 месяцев 10 дней) [-]0[+]

Топик был перенесен из форума Новинки 2015-2016 (Web-DL, DVD, HD DVD, Blu-ray, HD Rips) в форум Мультфильмы (HD Video)

Formula
 
Показать сообщения:    
Ответить на тему

Текущее время: 08-Дек 16:02

Часовой пояс: GMT + 4



Вы не можете начинать темы
Вы не можете отвечать на сообщения
Вы не можете редактировать свои сообщения
Вы не можете удалять свои сообщения
Вы не можете голосовать в опросах
Вы не можете прикреплять файлы к сообщениям
Вы не можете скачивать файлы