Ошибка

Истории Последствий / Owarimonogatari (TV) [1-12 из 12] [2015] [приключения] [HDTV720p] [Любительский]

Ответить на тему
 
Автор Сообщение

Chel90RUS

Пол: Пол:Муж

Стаж: 5 лет 5 месяцев

Сообщений: 413

Россия
Рейтинг

post 26-Янв-2016 18:31 0[+]

[Цитировать] 

pic="http://static2.anidub.com/tracker/poster/e96c05628f.jpg"
AniDub.com представляет
Истории Последствий
Owarimonogatari / 終物語

Год выпуска: 2015
Жанр: приключения
Страна: Япония
Тип: HDTV
Продолжительность: 12 серий ~ 25 мин
Дата выпуска: c 04.10.2015 по 20.12.2015
Режиссер: Симбо Акиюки
Автор оригинала / Сценарист: Нисио Исин
Озвучено: SpasmSound, Nika Lenina
Перевод: Павел Иванов
Тайминг и работа со звуком: Sheeze, SpasmSound
Студия: Shaft
Аудио: AAC 48000Hz stereo 165kbps [A: aac lc, 48000 Hz, stereo, 165 kb/s]
Видео: MPEG4 Video (H264) 1280x720 23.976fps 1905kbps [V: h264 high L3.1, yuv420p, 1280x720, 1905 kb/s]

General
Complete name : \[AniDub]_Owarimonogatari_[02]_[720p]_[SpasmSound_NikaLenina].mp4
Format : MPEG-4
Format profile : Base Media
Codec ID : isom
File size : 361 MiB
Duration : 24mn 20s
Overall bit rate mode : Variable
Overall bit rate : 2 075 Kbps
Encoded date : UTC 2015-10-15 20:48:05
Tagged date : UTC 2015-10-15 20:48:05
Writing application : Yamb 2.1.0.0

Video
ID : 1
Format : AVC
Format/Info : Advanced Video Codec
Format profile : High@L3.1
Format settings, CABAC : Yes
Format settings, ReFrames : 4 frames
Codec ID : avc1
Codec ID/Info : Advanced Video Coding
Duration : 24mn 20s
Bit rate : 1 905 Kbps
Maximum bit rate : 16.0 Mbps
Width : 1 280 pixels
Height : 720 pixels
Display aspect ratio : 16:9
Frame rate mode : Constant
Frame rate : 23.976 fps
Color space : YUV
Chroma subsampling : 4:2:0
Bit depth : 8 bits
Scan type : Progressive
Bits/(Pixel*Frame) : 0.086
Stream size : 332 MiB (92%)
Writing library : x264 core 146 r2538 121396c
Encoding settings : cabac=1 / ref=3 / deblock=1:0:0 / analyse=0x3:0x113 / me=hex / subme=7 / psy=1 / psy_rd=1.00:0.00 / mixed_ref=1 / me_range=16 / chroma_me=1 / trellis=1 / 8x8dct=1 / cqm=0 / deadzone=21,11 / fast_pskip=1 / chroma_qp_offset=-2 / threads=6 / lookahead_threads=1 / sliced_threads=0 / nr=0 / decimate=1 / interlaced=0 / bluray_compat=0 / constrained_intra=0 / bframes=3 / b_pyramid=2 / b_adapt=1 / b_bias=0 / direct=1 / weightb=1 / open_gop=0 / weightp=2 / keyint=240 / keyint_min=23 / scenecut=40 / intra_refresh=0 / rc_lookahead=40 / rc=2pass / mbtree=1 / bitrate=1905 / ratetol=1.0 / qcomp=0.60 / qpmin=0 / qpmax=69 / qpstep=4 / cplxblur=20.0 / qblur=0.5 / ip_ratio=1.40 / aq=1:1.00
Encoded date : UTC 2015-10-16 20:47:32
Tagged date : UTC 2015-10-15 20:48:11

Audio
ID : 2
Format : AAC
Format/Info : Advanced Audio Codec
Format profile : LC
Codec ID : 40
Duration : 24mn 20s
Duration_FirstFrame : 64ms
Bit rate mode : Variable
Bit rate : 165 Kbps
Maximum bit rate : 213 Kbps
Channel(s) : 2 channels
Channel positions : Front: L R
Sampling rate : 48.0 KHz
Compression mode : Lossy
Stream size : 28.8 MiB (8%)
Encoded date : UTC 2015-10-15 20:48:06
Tagged date : UTC 2015-10-15 20:48:11
Описание:
Школьная жизнь Коёми Арараги подходит к своему завершению. Однако, остаётся ещё множество загадок и проблем, ждущих своего часа. Перед своим выпускным ему придётся решить множество вопросов. Как закончить школу и выжить? Кто такая эта странная Оги Оcино? Что же такого произошло в средней школе, и почему его бывшая одноклассница Содати испытывает к Арараги такую жгучую ненависть? Чтобы увидеть своё будущее, Арараги придётся изрядно покопаться в своём прошлом.
info [Профиль]  [ЛС] 

zzzombie1989

Пол: Пол:Жен

Стаж: 6 лет 9 месяцев

Сообщений: 66

Предупреждений: 1

США
Рейтинг

post 29-Янв-2016 12:37 (спустя 2 дня 18 часов) [-]0[+]

[Цитировать] 

Nika Lenina <З обожаю её озвучку. Странно, что кунов озвучивал не JAM. Видимо другими проектами занят.
info [Профиль]  [ЛС] 
Показать сообщения:    
Ответить на тему

Текущее время: 09-Дек 21:32

Часовой пояс: GMT + 4



Вы не можете начинать темы
Вы не можете отвечать на сообщения
Вы не можете редактировать свои сообщения
Вы не можете удалять свои сообщения
Вы не можете голосовать в опросах
Вы не можете прикреплять файлы к сообщениям
Вы не можете скачивать файлы