Ошибка

Измерение W / Dimension W [TV] [1-12 из 12] [2016] [приключения, фантастика] [HDTVRip] [720p] [Профессиональный]

Ответить на тему
 
Автор Сообщение

NovA_JKE

Пол: Пол:Жен

Стаж: 6 лет 9 месяцев

Сообщений: 413

Антарктида
Рейтинг

post 14-Янв-2016 22:40 1[+]

[Цитировать] 

pic="http://savepic.ru/8309252.gif"


Измерение W | Dimension W

Год выпуска: 2016
Страна: Япония
Жанр: приключения, фантастика
Тип: TV
Продолжительность: 12 эп. x 25 мин.
Студия:
Режиссер: Камэй Канта
Автор оригинала: Ивахара Юдзи
Релиз: студия Kansai
Перевод: Марина Андреева
Озвучивание: многоголосое закадровое


Описание: В будущем мечта Николы Теслы о беспроводной передаче электричества осуществилась. Провода и батареи остались в прошлом, а люди начали получать электричество из так называемых «катушек». Однако со временем некоторые люди стали модифицировать свои «катушки» и использовать их как оружие. Кёма Мабучи — «охотник», который в обмен на эти незаконные «катушки» получает деньги и топливо для своего раритетного автомобиля, работающего на бензине. Однажды, как и всегда, он берётся за работу: ему поручают отобрать партию нелегальных «катушек». Перебив всех бандитов, он нехотя спасает девушку, которая тут же отправляет его в нокаут с одной пощечины.
Дополнительная информация:


Качество: HDTV
Формат: mp4
Видео: h.264; 8 bit; 1280x720; 23,976 fps; ~2277 kbps
Аудио:
 1. RU: AAC-LC 2.0, 48 kHz, ~224 kbps
Субтитры: нет
РСВР (RARS): 16+
  1. Collector.
  2. Loser.
  3. Chase the Numbers.
  4. The Mystery Hidden in Lake Yasogami.
  5. The Possibilities of the Dead.
  6. The Wind of Africa.
  7. The Voice Calling from the Past.
  8. The Island That Fell into Nothingness.
  9. The Key to Adrastea.
  10. Resurrected Nightmare.
  11. The Lost Genesis.
  12. The Future Reached.

Код:

Общее
Полное имя                               : Q:\Dimension W [KANSAI]\Dimension.W.s01e01.HDTVRip.720p.Kansai.mp4
Формат                                   : MPEG-4
Профиль формата                          : Base Media
Идентификатор кодека                     : isom (isom)
Размер файла                             : 439 Мбайт
Продолжительность                        : 24 м.
Режим общего битрейта                    : Переменный
Общий поток                              : 2505 Кбит/сек
Дата кодирования                         : UTC 2016-01-14 04:54:15
Дата пометки                             : UTC 2016-01-14 04:54:15
Программа кодирования                    : Yamb 2.1.0.0 [http://yamb.unite-video.com]

Видео
Идентификатор                            : 1
Формат                                   : AVC
Формат/Информация                        : Advanced Video Codec
Профиль формата                          : High@L4.1
Параметр CABAC формата                   : Да
Параметр ReFrames формата                : 4 кадра
Идентификатор кодека                     : avc1
Идентификатор кодека/Информация          : Advanced Video Coding
Продолжительность                        : 24 м.
Битрейт                                  : 2277 Кбит/сек
Максимальный битрейт                     : 17,3 Мбит/сек
Ширина                                   : 1280 пикселей
Высота                                   : 720 пикселей
Соотношение сторон                       : 16:9
Режим частоты кадров                     : Постоянный
Частота кадров                           : 23,976 (24000/1001) кадра/сек
Цветовое пространство                    : YUV
Субдискретизация насыщенности            : 4:2:0
Битовая глубина                          : 8 бит
Тип развёртки                            : Прогрессивная
Бит/(Пиксели*Кадры)                      : 0.103
Размер потока                            : 399 Мбайт (91%)
Заголовок                                : 264
Библиотека кодирования                   : x264 core 129 r2245+729M 1a52e03
Настройки программы                      : cabac=1 / ref=4 / deblock=1:1:-1 / analyse=0x3:0x113 / me=umh / subme=9 / psy=1 / fade_compensate=0.00 / psy_rd=1.00:0.00 / mixed_ref=1 / me_range=24 / chroma_me=1 / trellis=2 / 8x8dct=1 / cqm=0 / deadzone=21,11 / fast_pskip=1 / chroma_qp_offset=-2 / threads=8 / lookahead_threads=1 / sliced_threads=0 / nr=0 / decimate=1 / interlaced=0 / bluray_compat=0 / constrained_intra=0 / fgo=0 / bframes=9 / b_pyramid=2 / b_adapt=2 / b_bias=0 / direct=1 / weightb=1 / open_gop=0 / weightp=2 / keyint=240 / keyint_min=24 / scenecut=40 / intra_refresh=0 / rc=crf / mbtree=0 / crf=18.5 / qcomp=0.72 / qpmin=0 / qpmax=69 / qpstep=4 / ip_ratio=1.40 / pb_ratio=1.30 / aq=1:0.85
Дата кодирования                         : UTC 2016-01-11 05:52:02
Дата пометки                             : UTC 2016-01-14 04:54:15
Цветовой диапазон                        : Limited
Основные цвета                           : BT.709
Характеристики трансфера                 : BT.709
Коэффициенты матрицы                     : BT.709

Аудио
Идентификатор                            : 2
Формат                                   : AAC
Формат/Информация                        : Advanced Audio Codec
Профиль формата                          : LC
Идентификатор кодека                     : 40
Продолжительность                        : 24 м.
Вид битрейта                             : Переменный
Битрейт                                  : 224 Кбит/сек
Максимальный битрейт                     : 232 Кбит/сек
Каналы                                   : 2 канала
Расположение каналов                     : Front: L R
Частота                                  : 48,0 КГц
Частота кадров                           : 46,875 кадров/сек (1024 spf)
Метод сжатия                             : С потерями
Размер потока                            : 39,2 Мбайт (9%)
Заголовок                                : Kansai
Дата кодирования                         : UTC 2016-01-14 03:46:02
Дата пометки                             : UTC 2016-01-14 04:54:15
info [Профиль]  [ЛС] 

NovA_JKE

Пол: Пол:Жен

Стаж: 6 лет 9 месяцев

Сообщений: 413

Антарктида
Рейтинг

post 22-Янв-2016 19:53 (спустя 7 дней) [-]0[+]

[Цитировать] 

bump. 2-я серия.
info [Профиль]  [ЛС] 

franck

Пол: Пол:Муж

Стаж: 7 лет 1 месяц

Сообщений: 141

Украина
Рейтинг

post 23-Янв-2016 02:00 (спустя 6 часов) [-]0[+]

[Цитировать] 

Спасибо за раздачу. Заценим-с. kolob_125

_________________
info [Профиль]  [ЛС] 

fokoine

Пол: Пол:Муж

Стаж: 2 года 6 месяцев

Сообщений: 10

Россия
Рейтинг

post 23-Янв-2016 14:17 (спустя 12 часов) [-]2[+]

[Цитировать] 

лет 6 ничего не смотрел в данном жанре. думаю можно заценить =)

_________________
info [Профиль]  [ЛС] 

NovA_JKE

Пол: Пол:Жен

Стаж: 6 лет 9 месяцев

Сообщений: 413

Антарктида
Рейтинг

post 06-Фев-2016 19:34 (спустя 14 дней) [-]0[+]

[Цитировать] 

Добавлена 3-я сeрия.
info [Профиль]  [ЛС] 

Big23

Стаж: 6 лет 5 месяцев

Сообщений: 993

Зимбабве
Рейтинг

post 07-Фев-2016 00:13 (спустя 4 часа) [-]1[+]

[Цитировать] 

А с субчиками - ужэж 4 серии ^^

_________________
везде требуются космонавты
info [Профиль]  [ЛС] 

iiycToTA

Пол: Пол:Муж

Стаж: 6 лет 3 месяца

Сообщений: 122

Россия
Рейтинг

post 08-Фев-2016 03:16 (спустя 1 день 3 часа) [-]-1[+]

[Цитировать] 

походу вкусная вещь, подпишусь
info [Профиль]  [ЛС] 

NovA_JKE

Пол: Пол:Жен

Стаж: 6 лет 9 месяцев

Сообщений: 413

Антарктида
Рейтинг

post 20-Фев-2016 21:49 (спустя 12 дней) [-]0[+]

[Цитировать] 

Добавлена 4-я сeрия.
info [Профиль]  [ЛС] 

NovA_JKE

Пол: Пол:Жен

Стаж: 6 лет 9 месяцев

Сообщений: 413

Антарктида
Рейтинг

post 25-Фев-2016 22:07 (спустя 5 дней) [-]0[+]

[Цитировать] 

Добавлена 5-я сeрия.
info [Профиль]  [ЛС] 

Domovoi

Пол: Пол:Муж

Стаж: 7 лет 2 месяца

Сообщений: 21

Россия
Рейтинг

post 26-Фев-2016 00:13 (спустя 2 часа 6 минут) [-]0[+]

[Цитировать] 

Озвучка хорошая.

_________________
Intel Core i7 920 LGA1366
Asus P6T SE
6х2 Гб DDR3-1333
nVIDIA GeForce GTX 670
LG W2343 [23" LCD]
info [Профиль]  [ЛС] 

NovA_JKE

Пол: Пол:Жен

Стаж: 6 лет 9 месяцев

Сообщений: 413

Антарктида
Рейтинг

post 28-Фев-2016 20:09 (спустя 2 дня 19 часов) [-]0[+]

[Цитировать] 

Добавлена 6-я сeрия.
info [Профиль]  [ЛС] 

AFILEXO

Пол: Пол:Муж

Стаж: 7 лет 1 месяц

Сообщений: 523

Россия
Рейтинг

post 29-Фев-2016 09:04 (спустя 12 часов) [-]0[+]

[Цитировать] 

мульт интересный и озвучка качественная
info [Профиль]  [ЛС] 

NovA_JKE

Пол: Пол:Жен

Стаж: 6 лет 9 месяцев

Сообщений: 413

Антарктида
Рейтинг

post 10-Мар-2016 23:33 (спустя 10 дней) [-]0[+]

[Цитировать] 

Добавлена 7-я сeрия.
info [Профиль]  [ЛС] 

NovA_JKE

Пол: Пол:Жен

Стаж: 6 лет 9 месяцев

Сообщений: 413

Антарктида
Рейтинг

post 15-Мар-2016 20:01 (спустя 4 дня) [-]0[+]

[Цитировать] 

Добавлены 8-я и 9-я серии.
info [Профиль]  [ЛС] 

AFILEXO

Пол: Пол:Муж

Стаж: 7 лет 1 месяц

Сообщений: 523

Россия
Рейтинг

post 15-Мар-2016 23:04 (спустя 3 часа) [-]0[+]

[Цитировать] 

посмотрел другой мульт-этот качественный и лучший !
info [Профиль]  [ЛС] 

d3lmi

Стаж: 7 лет 7 месяцев

Сообщений: 20

Рейтинг

post 22-Мар-2016 01:41 (спустя 6 дней) [-]0[+]

[Цитировать] 

Чья озвучка? Просто великолепно.
info [Профиль]  [ЛС] 

franck

Пол: Пол:Муж

Стаж: 7 лет 1 месяц

Сообщений: 141

Украина
Рейтинг

post 22-Мар-2016 16:19 (спустя 14 часов) [-]0[+]

[Цитировать] 

d3lmi писал(а):

Релиз: студия Kansai
Перевод: Марина Андреева
Озвучивание: многоголосое закадровое

_________________
info [Профиль]  [ЛС] 

NovA_JKE

Пол: Пол:Жен

Стаж: 6 лет 9 месяцев

Сообщений: 413

Антарктида
Рейтинг

post 29-Май-2016 23:45 (спустя 2 месяца 7 дней) [-]0[+]

[Цитировать] 

Добавлены 10-12 серии. Конец.
info [Профиль]  [ЛС] 

franck

Пол: Пол:Муж

Стаж: 7 лет 1 месяц

Сообщений: 141

Украина
Рейтинг

post 30-Май-2016 17:16 (спустя 17 часов) [-]0[+]

[Цитировать] 

Понеслась anime_17
NovA_JKE
Благодарствую за релиз, обожаю Кансайскую озвучку anime_63

_________________
info [Профиль]  [ЛС] 
Показать сообщения:    
Ответить на тему

Текущее время: 11-Дек 04:27

Часовой пояс: GMT + 4



Вы не можете начинать темы
Вы не можете отвечать на сообщения
Вы не можете редактировать свои сообщения
Вы не можете удалять свои сообщения
Вы не можете голосовать в опросах
Вы не можете прикреплять файлы к сообщениям
Вы не можете скачивать файлы