Ошибка

Финальные истории / Owarimonogatari [TV] [12 из 12] [2015] [приключения, мистика] [HDTVRip] [720p] [Субтитры (JAP)]

Ответить на тему
 
Автор Сообщение

anoningen

Стаж: 4 года 2 месяца

Сообщений: 468

Самоа
Рейтинг

post 12-Янв-2016 01:30 1[+]

[Цитировать] 

Финальные истории
Owarimonogatari | 終物語

Год выпуска:
2015 г.
Тип: TV
Жанр: приключения, мистика
Режиссер: Симбо Акиюки
Автор оригинала: Нисио Исин
Студия:
Продолжительность: >12 эп. по 25 мин
Русские субтитры: ASS, внешним файлом
Перевод: EfimT [Sovet Romantica]
Редактор/Тайм-кодер/Оформитель: Xander [Sovet Romantica]

Описание: Коёми Арараги, выпускник частной школы Наоэцу, оказался после уроков заперт в пустом классе вместе с юной особой. Думаете, очередная «дева в беде»? Как бы ни так, веселые времена прошли, теперь вихрастый полувампир должен помочь самому себе, ибо запертая комната – его прошлое, что держит и не отпускает. Ну а проводником Коёми по лабиринтам минувшего станет загадочная Оги Осино – самозваная племянница старого гуру, милая и симпатичная девушка, которую, правда, даже в страшном сне не назовешь «смутным объектом желания»!
Арараги, безусловно, герой – но герои тоже совершают ошибки, иногда не сознавая того. Перед выпуском из школы и выходом в новую, взрослую, жизнь, где и спрос другой, судьба дает парню шанс развязать узлы и отдать прошлые долги. Бередить старое тяжко и мучительно – а кто говорил, что будет легко? Сюжетные нити грандиозной саги стягиваются к финалу, любимые персонажи занимают места для последней партии, новые загадки вырастают из старых тайн – а нас зовет в зрительный зал черноглазый Вергилий, помахивая своими длинными рукавами!

Автор рипа: Ohys-Raws
Качество: HDTVRip
Формат видео: MPEG-4
Видео: AVC, 8 бит, 1280x720; 23.976 кадра/сек; 1540 Кбит/сек, (16:9)
Аудио: AAC, 48,0 КГц, Переменный 218~260 Кбит/сек, 2 канала
Общее
Полное имя : G:\Anime\Owarimonogatari\[Ohys-Raws] Owarimonogatari - 01 (MX 1280x720 x264 AAC).mp4
Формат : MPEG-4
Профиль формата : Base Media
Идентификатор кодека : isom (isom/avc1)
Размер файла : 614 Мбайт
Продолжительность : 48 м.
Режим общего битрейта : Переменный
Общий поток : 1762 Кбит/сек
Дата кодирования : UTC 2015-10-03 16:46:25
Дата пометки : UTC 2015-10-03 16:46:25

Видео
Идентификатор : 1
Формат : AVC
Формат/Информация : Advanced Video Codec
Профиль формата : Main@L4.1
Параметр CABAC формата : Да
Параметр ReFrames формата : 4 кадра
Идентификатор кодека : avc1
Идентификатор кодека/Информация : Advanced Video Coding
Продолжительность : 48 м.
Битрейт : 1540 Кбит/сек
Максимальный битрейт : 19,9 Мбит/сек
Ширина : 1280 пикселей
Высота : 720 пикселей
Соотношение сторон : 16:9
Режим частоты кадров : Постоянный
Частота кадров : 23,976 (24000/1001) кадра/сек
Цветовое пространство : YUV
Субдискретизация насыщенности : 4:2:0
Битовая глубина : 8 бит
Тип развёртки : Прогрессивная
Бит/(Пиксели*Кадры) : 0.070
Размер потока : 537 Мбайт (87%)
Библиотека кодирования : x264 core 148 r2597 e86f3a1
Настройки программы : cabac=1 / ref=3 / deblock=1:0:0 / analyse=0x1:0x111 / me=hex / subme=7 / psy=1 / psy_rd=1.00:0.00 / mixed_ref=1 / me_range=16 / chroma_me=1 / trellis=1 / 8x8dct=0 / cqm=0 / deadzone=21,11 / fast_pskip=1 / chroma_qp_offset=-2 / threads=12 / lookahead_threads=2 / sliced_threads=0 / nr=0 / decimate=1 / interlaced=0 / bluray_compat=0 / constrained_intra=0 / bframes=3 / b_pyramid=2 / b_adapt=1 / b_bias=0 / direct=1 / weightb=1 / open_gop=0 / weightp=2 / keyint=240 / keyint_min=1 / scenecut=40 / intra_refresh=0 / rc_lookahead=40 / rc=crf / mbtree=1 / crf=20.0 / qcomp=0.60 / qpmin=0 / qpmax=69 / qpstep=4 / ip_ratio=1.40 / aq=1:1.50
Дата кодирования : UTC 2015-10-03 16:46:25
Дата пометки : UTC 2015-10-03 16:46:31
Цветовой диапазон : Limited
Основные цвета : BT.709
Характеристики трансфера : BT.709
Коэффициенты матрицы : BT.709

Аудио
Идентификатор : 2
Формат : AAC
Формат/Информация : Advanced Audio Codec
Профиль формата : LC
Идентификатор кодека : 40
Продолжительность : 48 м.
Вид битрейта : Переменный
Битрейт : 218 Кбит/сек
Максимальный битрейт : 260 Кбит/сек
Каналы : 2 канала
Расположение каналов : Front: L R
Частота : 48,0 КГц
Частота кадров : 46,875 кадров/сек (1024 spf)
Метод сжатия : С потерями
Размер потока : 76,0 Мбайт (12%)
Язык : Japanese
Дата кодирования : UTC 2015-10-03 16:26:41
Дата пометки : UTC 2015-10-03 16:46:31
info [Профиль]  [ЛС] 

anoningen

Стаж: 4 года 2 месяца

Сообщений: 468

Самоа
Рейтинг

post 12-Янв-2016 08:43 (спустя 7 часов) [-]0[+]

[Цитировать] 

Раздавать начну после 19.00 по Мск.
info [Профиль]  [ЛС] 

leSang

Пол: Пол:Муж

Стаж: 8 лет 3 месяца

Сообщений: 1309

Япония
Рейтинг

post 12-Янв-2016 20:16 (спустя 11 часов) [-]0[+]

[Цитировать] 

MAL Statistics
Score: 8.491 (scored by 22,369 users)
Ranked: #1042
Popularity: #735
Members: 59,668
Favorites: 359

_________________
info [Профиль]  [ЛС] 

Ka4atel

Пол: Пол:Муж

Стаж: 7 лет 10 месяцев

Сообщений: 95

Россия
Рейтинг

post 12-Янв-2016 20:48 (спустя 31 минута) [-]-1[+]

[Цитировать] 

Не являюсь фанатом Истории монстров, но аниме годное. Посмотрим, что в финале.
info [Профиль]  [ЛС] 
Показать сообщения:    
Ответить на тему

Текущее время: 21-Июл 08:41

Часовой пояс: GMT + 4



Вы не можете начинать темы
Вы не можете отвечать на сообщения
Вы не можете редактировать свои сообщения
Вы не можете удалять свои сообщения
Вы не можете голосовать в опросах
Вы не можете прикреплять файлы к сообщениям
Вы не можете скачивать файлы