Ошибка

Дровосек (2015)

Ответить на тему
 
Автор Сообщение

ugarik6

Пол: Пол:Муж

Стаж: 11 месяцев

Сообщений: 4

Россия
Рейтинг

post 07-Янв-2016 21:02 0[+]

[Цитировать] 



Страна: США
Жанр: Ужасы, Комедия
Год выпуска: 2015
Продолжительность: 01:44:28

Перевод: Одноголосый закадровый Васька Куролесов по субтитрам Северный
Cубтитры: нет
Режиссер: Джош Беар / Josh Bear

В ролях: Майкл Мэдсен, Брина Паленсиа, Кристофер Сабат, Рэй Кроуфорд, Алекс Добренко, Сиара Флинн, Зэк Герерро, Чейз Джолиет

Описание: В то время как обитатели религиозного лагеря Good Friends готовятся к ежегодному весеннему празднику, демонический дровосек восстает из глубин ада и, ведомый жаждой мести, готовится приготовить из своих жертв блинчики с соусом из их крови.

Качество видео: WEB-DLRip
Формат видео: AVI

Видео: XviD , 1 790 Кбит/с, 720x304, 23.976 fps
Аудио: 48.0 KHz, AC3, 2 ch, 192 Kbps
Complete name : G:\Lumberjack.Man.2015.WEBRip_KypoJIecoB.avi
Format : AVI
Format/Info : Audio Video Interleave
File size : 1.45 GiB
Duration : 1h 44mn
Overall bit rate : 1 992 Kbps
Writing application : VirtualDubMod 1.5.10.2 (build 2540/release)
Writing library : VirtualDubMod build 2540/release

Video
ID : 0
Format : MPEG-4 Visual
Format profile : Advanced Simple@L5
Format settings, BVOP : 1
Format settings, QPel : No
Format settings, GMC : No warppoints
Format settings, Matrix : Custom
Codec ID : XVID
Codec ID/Hint : XviD
Duration : 1h 44mn
Bit rate : 1 790 Kbps
Width : 720 pixels
Height : 304 pixels
Display aspect ratio : 2.35:1
Frame rate : 23.976 fps
Color space : YUV
Chroma subsampling : 4:2:0
Bit depth : 8 bits
Scan type : Progressive
Compression mode : Lossy
Bits/(Pixel*Frame) : 0.341
Stream size : 1.31 GiB (90%)
Writing library : XviD 73

Audio
ID : 1
Format : AC-3
Format/Info : Audio Coding 3
Mode extension : CM (complete main)
Format settings, Endianness : Big
Codec ID : 2000
Duration : 1h 44mn
Bit rate mode : Constant
Bit rate : 192 Kbps
Channel(s) : 2 channels
Channel positions : Front: L R
Sampling rate : 48.0 KHz
Compression mode : Lossy
Stream size : 143 MiB (10%)
Alignment : Split accross interleaves
Interleave, duration : 42 ms (1.00 video frame)
Interleave, preload duratio : 500 ms
info [Профиль]  [ЛС] 
Показать сообщения:    
Ответить на тему

Текущее время: 02-Дек 22:13

Часовой пояс: GMT + 4



Вы не можете начинать темы
Вы не можете отвечать на сообщения
Вы не можете редактировать свои сообщения
Вы не можете удалять свои сообщения
Вы не можете голосовать в опросах
Вы не можете прикреплять файлы к сообщениям
Вы не можете скачивать файлы