Ошибка

Тяжёлый объект / Heavy Object [TV] [1-3 из 24] [2015] [приключения] [BDRip] [720p] [Любительский (JAP+SUB)]

Ответить на тему
 
Автор Сообщение

Chihiro

Пол: Пол:Муж

Стаж: 6 лет 4 месяца

Сообщений: 31

Россия
Рейтинг

post 06-Янв-2016 14:17 1[+]

[Цитировать] 



Год выпуска: 2015
Страна: Япония
Жанр: приключения
Продолжительность: ТВ, 24 эп. по 25 мин.
Выпуск: c 03.10.2015
Перевод:
  • русские субтитры от YakuSub Studio (полные/вспомогательные)
    редактор: Aero, переводчики: Nika_Elrik, Selfish

Режиссер: Канэко Хираку
Студия: J.C. Staff
Описание:
В альтернативном будущем создали абсолютное оружие – огромные мобильные крепости, названные Объектами. Для неуязвимых броневых монстров нет преград на земле и на море, а управлять такими могут даже хрупкие девушки (чем они, собственно, и занимаются). Страны мира «перезагрузились» в четыре новых глобальных союза, но войны стали проще и честнее – сражаются только Объекты, остальные войска превратились в силы обеспечения, проигравшая сторона исполняет требования победителя.

На затерянной в снегах Аляски военной базе служат два товарища – опальный аристократ Хейвия, страдающий за длинный язык, и бедный студент Квинсер, мечтающий выучиться технике и открыть свое дело. Вся база работает на Объект «Бэби-гигант», который пилотирует очаровательная Милинда. Но с милашкой-пилотом особо не поболтаешь, ибо командир базы, майор Фролейтия – не просто роковая женщина, а мастер находить работу двум молодым разгильдяям. Увы, спокойные дни остаются в прошлом, когда из снежной бури приходит враг. Теперь четверо героев выживут или погибнут только вместе!
© Hollow, World Art
Информационные ссылки: AniDB || World Art || MAL
Качество: BDRip
Энкод: Beatrice-Raws
Тип видео: без хардсаба, без линковки
Формат: mkv
Видео: x264 (Hi10p), 1280x720, ~4300 Kbps, 23.976 fps
Аудио JAP: Vorbis, 48000Hz, ~256 Kbps, 2ch
Аудио RUS: AC3, 48000Hz, ~192 Kbps, 2ch (внешними файлами)
  • трехголосая от Zendos & Eladiel & Absurd (Onibaku)

01. The Little Soldiers Who Tie Down Gulliver: The Snowy Deep Winter Battle of Alaska I
02. The Little Soldiers Who Tie Down Gulliver: The Snowy Deep Winter Battle of Alaska II
03. The Little Soldiers Who Tie Down Gulliver: The Snowy Deep Winter Battle of Alaska III


Код:

Формат : Matroska
Версия формата : Version 4 / Version 2
Размер файла : 786 Мбайт
Продолжительность : 23 м.
Режим общего битрейта : Переменный
Общий поток : 4640 Кбит/сек
Дата кодирования : UTC 2016-01-05 10:22:50
Программа кодирования : mkvmerge v8.0.0 ('Til The Day That I Die') 64bit
Библиотека кодирования : libebml v1.3.1 + libmatroska v1.4.2
DURATION : 00:23:41.050000000
NUMBER_OF_FRAMES : 217597
NUMBER_OF_BYTES : 50367893
_STATISTICS_WRITING_APP : mkvmerge v8.0.0 ('Til The Day That I Die') 64bit
_STATISTICS_WRITING_DATE_UTC : 2016-01-05 10:22:50
_STATISTICS_TAGS : BPS DURATION NUMBER_OF_FRAMES NUMBER_OF_BYTES

Видео
Идентификатор : 1
Формат : AVC
Формат/Информация : Advanced Video Codec
Профиль формата : High 10@L4.1
Параметр CABAC формата : Да
Параметр ReFrames формата : 9 кадров
Идентификатор кодека : V_MPEG4/ISO/AVC
Продолжительность : 23 м.
Битрейт : 4292 Кбит/сек
Ширина : 1280 пикселей
Высота : 720 пикселей
Соотношение сторон : 16:9
Режим частоты кадров : Постоянный
Частота кадров : 23,976 кадра/сек
Цветовое пространство : YUV
Субдискретизация насыщенности : 4:2:0
Битовая глубина : 10 бит
Тип развёртки : Прогрессивная
Бит/(Пиксели*Кадры) : 0.194
Размер потока : 727 Мбайт (92%)
Заголовок : BDRip by X-Kira
Библиотека кодирования : x264 core 148 r2579 73ae2d1
Настройки программы : cabac=1 / ref=9 / deblock=1:-2:-2 / analyse=0x3:0x113 / me=umh / subme=9 / psy=1 / psy_rd=0.90:0.00 / mixed_ref=1 / me_range=32 / chroma_me=1 / trellis=2 / 8x8dct=1 / cqm=0 / deadzone=21,11 / fast_pskip=1 / chroma_qp_offset=-2 / threads=6 / lookahead_threads=1 / sliced_threads=0 / nr=0 / decimate=1 / interlaced=0 / bluray_compat=0 / constrained_intra=0 / bframes=11 / b_pyramid=2 / b_adapt=2 / b_bias=0 / direct=1 / weightb=1 / open_gop=0 / weightp=2 / keyint=240 / keyint_min=23 / scenecut=40 / intra_refresh=0 / rc=crf / mbtree=0 / crf=14.3 / qcomp=0.70 / qpmin=0 / qpmax=81 / qpstep=4 / ip_ratio=1.40 / pb_ratio=1.30 / aq=1:1.00
Язык : Japanese
Default : Да
Forced : Нет
Цветовой диапазон : Limited
Основные цвета : BT.709
Характеристики трансфера : BT.709
Коэффициенты матрицы : BT.709

Аудио
Идентификатор : 2
Формат : Vorbis
Параметр Floor формата : 1
Идентификатор кодека : A_VORBIS
Продолжительность : 23 м.
Вид битрейта : Переменный
Битрейт : 256 Кбит/сек
Каналы : 2 канала
Частота : 48,0 КГц
Метод сжатия : С потерями
Размер потока : 43,4 Мбайт (6%)
Заголовок : LPCM->Vorbis
Библиотека кодирования : aoTuV 20110424 (UTC 2011-04-24)
Язык : Japanese
Default : Да
Forced : Нет

Меню
00:00:00.000 : en:Prologue
00:04:29.018 : en:Opening
00:05:59.025 : en:Part A
00:12:03.055 : en:Part B
00:22:00.068 : en:Ending
00:23:30.075 : en:Preview

Данный релиз предназначен для просмотра на ПК. Воспроизведение на иных проигрывателях не гарантируется.
Данный релиз содержит 10-битное видео (Hi10p). Для корректного воспроизведения обязательно используйте кодеки, поддерживающие 10-битное видео.
Данный релиз предназначен для просмотра с внешними субтитрами и внешними звуковыми дорожками.
  • Для просмотра с внешней звуковой дорожкой нужно:
    перекинуть файлы .mka из папки "RUS Sound [<автор(ы) озвучки>]" в одну папку с видео и переключить звуковую дорожку в плеере при просмотре.
  • Для просмотра с субтитрами нужно:
    перекинуть файлы .ass из папки "RUS Subtitles [<автор(ы) перевода>]" в одну папку с видео - плеер подгрузит их автоматически при открытии видео.
info [Профиль]  [ЛС] 

post 06-Янв-2016 14:40 (спустя 22 минуты) [-]0[+]

Топик был перенесен из форума Анонсы в форум HD Rips

Алмаз
 

QWERTY222222

Пол: Пол:Муж

Стаж: 7 лет 4 месяца

Сообщений: 65

Россия
Рейтинг

post 06-Янв-2016 16:39 (спустя 2 часа 21 минута) [-]66[+]

[Цитировать] 

Когда я перестану обращать внимание на обложки анимешек?)))
info [Профиль]  [ЛС] 

Executor13

Пол: Пол:Муж

Стаж: 2 года 9 месяцев

Сообщений: 11

Россия
Рейтинг

post 06-Янв-2016 17:47 (спустя 1 час 8 минут) [-]4[+]

[Цитировать] 

QWERTY222222
Не, ну пару раз то дёрнуть можно.
info [Профиль]  [ЛС] 

Chihiro

Пол: Пол:Муж

Стаж: 6 лет 4 месяца

Сообщений: 31

Россия
Рейтинг

post 06-Янв-2016 18:12 (спустя 24 минуты) [-]0[+]

[Цитировать] 

Чем непонравилась обложка?
info [Профиль]  [ЛС] 

WERBIS

Стаж: 3 года 7 месяцев

Сообщений: 7

Россия
Рейтинг

post 06-Янв-2016 20:03 (спустя 1 час 51 минута) [-]0[+]

[Цитировать] 

А персонажу на обложке всего лишь 14 лет

_________________
info [Профиль]  [ЛС] 

DankeAO

Стаж: 2 года 5 месяцев

Сообщений: 7

Рейтинг

post 06-Янв-2016 20:16 (спустя 13 минут) [-]2[+]

[Цитировать] 

http://moe.shikimori.org/images/user_image/original/526/191367.jpg

Не только обложка тут клевая Улыбаюсь

_________________
Моя Честь - Верность.
info [Профиль]  [ЛС] 

dugi dugi

Пол: Пол:Муж

Стаж: 2 года

Сообщений: 249

Предупреждений: 1

Зимбабве
Рейтинг

post 06-Янв-2016 20:28 (спустя 11 минут) [-]3[+]

[Цитировать] 

WERBIS писал(а):

А персонажу на обложке всего лишь 14 лет
и что теперь не смотреть что ли ?!

_________________
info [Профиль]  [ЛС] 

Chihiro

Пол: Пол:Муж

Стаж: 6 лет 4 месяца

Сообщений: 31

Россия
Рейтинг

post 06-Янв-2016 20:38 (спустя 9 минут) [-]0[+]

[Цитировать] 

DankeAO
Только не говори что это с моего рипа
info [Профиль]  [ЛС] 

DankeAO

Стаж: 2 года 5 месяцев

Сообщений: 7

Рейтинг

post 06-Янв-2016 22:27 (спустя 1 час 49 минут) [-]0[+]

[Цитировать] 

Chihiro писал(а):

DankeAO
Только не говори что это с моего рипа
Нет, это яндекс выдал картинки по запросу названия анимехи )

_________________
Моя Честь - Верность.
info [Профиль]  [ЛС] 

Chihiro

Пол: Пол:Муж

Стаж: 6 лет 4 месяца

Сообщений: 31

Россия
Рейтинг

post 06-Янв-2016 22:49 (спустя 21 минута) [-]-1[+]

[Цитировать] 

DankeAO
Славо богу. Ну не мог я такое просто сотвоить)
info [Профиль]  [ЛС] 

post 07-Янв-2016 13:55 (спустя 15 часов) [-]0[+]

Топик был перенесен из форума HD Rips в форум HD Rips

precentor frost
 

realgrimma

Стаж: 6 лет 9 месяцев

Сообщений: 44

Рейтинг

post 07-Янв-2016 13:58 (спустя 15 часов) [-]0[+]

[Цитировать] 

А само по себе аниме довольно посредственное, где чуваки под обстрелами трепятся так много и так нудно, что Льву Толстому и не снилось.
info [Профиль]  [ЛС] 

Chihiro

Пол: Пол:Муж

Стаж: 6 лет 4 месяца

Сообщений: 31

Россия
Рейтинг

post 07-Янв-2016 14:20 (спустя 21 минута) [-]0[+]

[Цитировать] 

realgrimma
На вкус и цвет)
info [Профиль]  [ЛС] 

realgrimma

Стаж: 6 лет 9 месяцев

Сообщений: 44

Рейтинг

post 07-Янв-2016 16:42 (спустя 2 часа 22 минуты) [-]0[+]

[Цитировать] 

Chihiro писал(а):

realgrimma
На вкус и цвет)
согласен, досмотрю конечно, но когда весь выйдет. В 15 году что то совсем плохо было с хорошими тейлами, только ванпачмена запомнил и про японскую армию в фентезийном мире.
info [Профиль]  [ЛС] 
Показать сообщения:    
Ответить на тему

Текущее время: 09-Дек 17:39

Часовой пояс: GMT + 4



Вы не можете начинать темы
Вы не можете отвечать на сообщения
Вы не можете редактировать свои сообщения
Вы не можете удалять свои сообщения
Вы не можете голосовать в опросах
Вы не можете прикреплять файлы к сообщениям
Вы не можете скачивать файлы