Ошибка

Приключения кота в сапогах / The Adventures of Puss in Boots (1 сезон: 1-15 серии из 15) (Даг Лэнгдэйл) [2015 г., Мультсериал, WEBRip][NewStudio]

Ответить на тему
 
Автор Сообщение

Serega624

Пол: Пол:Муж

Стаж: 2 года 5 месяцев

Сообщений: 1135

Россия
Рейтинг

post 02-Янв-2016 22:03 0[+]

[Цитировать] 

Приключения кота в сапогах / The Adventures of Puss in Boots




Год выпуска: 2015
Страна: США, DreamWorks Animation Television
Жанр: мультфильм, комедия, приключения, семейный
Продолжительность: серия ~00:23:00

Перевод: Профессиональный (многоголосый закадровый)[NewStudio]

Режиссер: Дуглас Лангдэйл

В ролях: Эрик Бауза, Грэй ДеЛисл, Карла Хименес, Арибелла Макана, Джейма Мейс, Лорейн Ньюмен, Пол Ругг, Джошуа Раш, Фрэнк Уэлкер, Дэнни Трехо

Описание: Известный по серии мультфильмов "Шрек" Кот в Сапогах решает отправиться в зачарованный город Сан-Лоренцо. Город этот скрыт в мифических землях и невидим для внешнего мира. Он охраняется мощными заклинаниями, которые охраняют его жителей и их чудесное сокровище от всяческих посягательств. Но поскольку наш герой - это Кот в сапогах - не был бы он самим собой, если бы случайно не разрушил столь важные для города чары. И теперь он должен не только защитить Сан-Лоренцо от легионов захватчиков и грабителей, но и исправить свою ошибку, вернув волшебной земле её защитную магию. Кто на это способен? Конечно, только настоящий герой!

imdb: http://www.imdb.com/title/tt3807034/
kinopoisk: http://www.kinopoisk.ru/film/882258

Качество: WEBRip
Формат: MKV
Видео кодек: MPEG-4
Аудио кодек: AC3
Видео:MPEG-4 AVC, ~ 1850 Кбит/с, 720x400
Аудио: Русский (AC3, 2 ch, 192 Кбит/с)
General
Unique ID : 223666284643653235478126601615769020974 (0xA8448F3C57B4EE3AA24A9986FE7F2A2E)
Complete name : C:\Users\Сергей\Desktop\ФИЛЬМЫ\Приключения кота в сапогах\Приключения кота в сапогах. 1 сезон - 2015 (WEBRip AVC)\01. Тайный город.mkv
Format : Matroska
Format version : Version 4 / Version 2
File size : 331 MiB
Duration : 23mn 5s
Overall bit rate : 2 001 Kbps
Encoded date : UTC 2015-01-19 21:33:45
Writing application : Lavf56.36.100
Writing library : Lavf56.36.100

Video
ID : 2
Format : MPEG-4 Visual
Format profile : Simple@L1
Format settings, BVOP : No
Format settings, QPel : No
Format settings, GMC : No warppoints
Format settings, Matrix : Default (H.263)
Codec ID : V_MPEG4/ISO/ASP
Codec ID/Info : Advanced Simple Profile
Duration : 23mn 5s
Bit rate : 1 770 Kbps
Width : 720 pixels
Height : 400 pixels
Display aspect ratio : 16:9
Frame rate mode : Constant
Frame rate : 23.976 fps
Color space : YUV
Chroma subsampling : 4:2:0
Bit depth : 8 bits
Scan type : Progressive
Compression mode : Lossy
Bits/(Pixel*Frame) : 0.256
Stream size : 292 MiB (88%)
Writing library : Lavc56.41.100
Language : English
Default : Yes
Forced : No

Audio
ID : 1
Format : AC-3
Format/Info : Audio Coding 3
Mode extension : CM (complete main)
Format settings, Endianness : Big
Codec ID : A_AC3
Duration : 23mn 5s
Bit rate mode : Constant
Bit rate : 192 Kbps
Channel(s) : 2 channels
Channel positions : Front: L R
Sampling rate : 48.0 KHz
Bit depth : 16 bits
Compression mode : Lossy
Stream size : 31.7 MiB (10%)
Language : Russian
Default : Yes
Forced : No
01. Тайный город (Hidden)
02. Сфинкс (Sphinx)
03. Братья (Brothers)
04. Герцогиня (Duchess)
05. Приключение (Adventure)
06. Фонтаны (Fountains)
07. Храбрость (Bravery)
08. Голем (Golem)
09. Сапоги (Boots)
10. Меч (Sword)
11. Мышь (Mouse)
12. Вышибалы (Dodgeball)
13. Дульсинея (Dulcinea)
14. Фестиваль (Festival)
15. Удача (Luck)
info [Профиль]  [ЛС] 

Serega624

Пол: Пол:Муж

Стаж: 2 года 5 месяцев

Сообщений: 1135

Россия
Рейтинг

post 03-Янв-2016 11:15 (спустя 13 часов) [-]0[+]

[Цитировать] 

Добавлена 15 серия.
info [Профиль]  [ЛС] 
Показать сообщения:    
Ответить на тему

Текущее время: 08-Дек 20:08

Часовой пояс: GMT + 4



Вы не можете начинать темы
Вы не можете отвечать на сообщения
Вы не можете редактировать свои сообщения
Вы не можете удалять свои сообщения
Вы не можете голосовать в опросах
Вы не можете прикреплять файлы к сообщениям
Вы не можете скачивать файлы