Ошибка

Крепкий орешек: Пенталогия / The Die Hard Pentalogy (Джон МакТирнан, Ренни Харлин, Лен Уайзман) [1988, 1990, 1995, 2007, 2013 г., боевик, триллер, криминал, BDRemux 1080p]

Ответить на тему
 
Автор Сообщение

Eвгений

Пол: Пол:Муж

Стаж: 6 лет 9 месяцев

Сообщений: 680

Россия
Рейтинг

post 15-Дек-2015 12:10 1[+]

[Цитировать] 

Крепкий орешек / Die Hard

Год выпуска: 1988
Страна: США, Великобритания
Жанр: боевик, триллер, криминал
Продолжительность: 02:12:10
Перевод: Профессиональный (полное дублирование)
Язык субтитров: Русский (Blu-ray CEE), Русский (Киномания), Русский (R5), Русский (Forced), Украинский, Английский
Режиссер:
  • Джон МакТирнан, Ренни Харлин, Лен Уайзман

В ролях:
  • Брюс Уиллис, Reginald VelJohnson, Бонни Беделиа, Александр Годунов, Пол Глисон, Уильям Атертон, De'voreaux White, Харт Бочнер, Алан Рикман, Дэннис Хейден, Clarence Gilyard Jr., Bruno Doyon, Андреас Вишневски, James Shigeta, Роберт Дави, Гранд Л. Буш, Мэтт Лэндерс, Энтони Пек, Лоренцо Каччаланца, Joey Plewa, Аль Леонг

Описание: В суперсовременном небоскребе Лос-Анджелеса полицейский Джон Макклейн ведет смертельную схватку с бандой политических террористов, взявших в заложники два десятка человек, в число которых попадает и его жена. Началось все с того, что парень приехал в город к жене, оказался на рождественском приеме, а кончилось настоящей войной…

РАЗДАЧА ОТ:
Качество: Blu-Ray Remux
Формат: BDMV
Видео кодек: MPEG-4 AVC
Аудио кодек: DTS HD/MA, DTS, AC3
Видео: 1920x1080, ~32840 Кбит/сек, 23,976 кадра/сек
Аудио #1: DTS, 768 Кбит/сек, 6 каналов, 48,0 КГц, 24 бит (Русский - Многоголосый ''ОРТ'')
Аудио #2: AC3, 448 Кбит/сек, 6 каналов, 48,0 КГц, 16 бит (Украинский - Многоголосый ''1+1'')
Аудио #3: DTS, 768 Кбит/сек, 6 каналов, 48,0 КГц, 24 бит (Русский - Дублированный ''Blu-ray CEE'')
Аудио #4: DTS HD/MA, 4030 Кбит/сек, 6 каналов, 24 бит (Русский - Многоголосый ''Киномания'')
Аудио #5: DTS HD/MA, 4031 Кбит/сек, 6 каналов, 24 бит (Русский - Многоголосый ''Карусель/Супербит'')
Аудио #6: AC3, 448 Кбит/сек, 6 каналов, 48,0 КГц, 16 бит (Русский - Многоголосый ''Киномания/Домашнее Видео'')
Аудио #7: AC3, 448 Кбит/сек, 6 каналов, 48,0 КГц, 16 бит (Русский - Многоголосый ''НТВ+'')
Аудио #8: AC3, 192 Кбит/сек, 2 канала, 48,0 КГц, 16 бит (Русский - Многоголосый ''Гемини R5'')
Аудио #9: AC3, 320 Кбит/сек, 6 каналов, 48,0 КГц, 16 бит (Русский - Многоголосый ''Премьер Видео Фильм'')
Аудио #10: AC3, 256 Кбит/сек, 2 канала, 48,0 КГц, 16 бит (Русский - Многоголосый ''Лазер Видео'')
Аудио #11: AC3, 192 Кбит/сек, 2 канала, 48,0 КГц, 16 бит (Украинский - Двухголосый ''ICTV'')
Аудио #12: DTS HD/MA, 4024 Кбит/сек, 6 каналов, 24 бит (Русский - Авторский ''А. Гаврилов'')
Аудио #13: DTS HD/MA, 4033 Кбит/сек, 6 каналов, 24 бит (Русский - Авторский ''Ю. Живов'')
Аудио #14: AC3, 384 Кбит/сек, 6 каналов, 48,0 КГц, 16 бит (Русский - Авторский ''В. Горчаков'')
Аудио #15: DTS HD/MA, 4038 Кбит/сек, 6 каналов, 24 бит (Русский - Любительский одноголосый ''Д. Строев'')
Аудио #16: AC3, 192 Кбит/сек, 2 канала, 48,0 КГц, 16 бит (Русский - Авторский ''Л. Володарский'')
Аудио #17: DTS HD/MA, 4013 Кбит/сек, 6 каналов, 24 бит (Английский - Оригинал)
Аудио #18: AC3, 224 Кбит/сек, 2 канала, 48,0 КГц, 16 бит (Английский - Оригинал ''Комментарии - John McTiernan и Jackson De Govia'')
Аудио #19: AC3, 224 Кбит/сек, 2 канала, 48,0 КГц, 16 бит (Английский - Оригинал ''Комментарии - Richard Edlund'')

Disc Title: DIE_HARD_1_HDCLUB
Disc Size: 66 003 107 304 bytes
Protection: AACS
BD-Java: No
BDInfo: 0.5.8

Notes:

BDINFO HOME:
Cinema Squid
http://www.cinemasquid.com/blu-ray/tools/bdinfo

INCLUDES FORUMS REPORT FOR:
AVS Forum Blu-ray Audio and Video Specifications Thread
http://www.avsforum.com/avs-vb/showthread.php?t=1155731

********************
PLAYLIST: 00000.MPLS
********************

Код:

                                                                                                                Total   Video                                             
Title                                                           Codec   Length  Movie Size      Disc Size       Bitrate Bitrate Main Audio Track                          Secondary Audio Track
-----                                                           ------  ------- --------------  --------------  ------- ------- ------------------                        ---------------------
00000.MPLS                                                      AVC     2:12:10 66 002 976 768  66 003 107 304  66,58   32,84   DTS 5.1 768Kbps (48kHz/24-bit)            DTS 5.1 768Kbps (48kHz/24-bit)


Код:



DISC INFO:

Disc Title:     DIE_HARD_1_HDCLUB
Disc Size:      66 003 107 304 bytes
Protection:     AACS
BD-Java:        No
BDInfo:         0.5.8

PLAYLIST REPORT:

Name:                   00000.MPLS
Length:                 2:12:10.560 (h:m:s.ms)
Size:                   66 002 976 768 bytes
Total Bitrate:          66,58 Mbps

VIDEO:

Codec                   Bitrate             Description     
-----                   -------             -----------     
MPEG-4 AVC Video        32840 kbps          1080p / 23,976 fps / 16:9 / High Profile 4.1

AUDIO:

Codec                           Language        Bitrate         Description     
-----                           --------        -------         -----------     
DTS Audio                       Russian         768 kbps        5.1 / 48 kHz / 768 kbps / 24-bit
Dolby Digital Audio             Ukrainian       448 kbps        5.1 / 48 kHz / 448 kbps
DTS Audio                       Russian         768 kbps        5.1 / 48 kHz / 768 kbps / 24-bit
DTS-HD Master Audio             Russian         4030 kbps       5.1 / 48 kHz / 4030 kbps / 24-bit (DTS Core: 5.1 / 48 kHz / 1509 kbps / 24-bit)
DTS-HD Master Audio             Russian         4031 kbps       5.1 / 48 kHz / 4031 kbps / 24-bit (DTS Core: 5.1 / 48 kHz / 1509 kbps / 24-bit)
Dolby Digital Audio             Russian         448 kbps        5.1 / 48 kHz / 448 kbps
Dolby Digital Audio             Russian         448 kbps        5.1 / 48 kHz / 448 kbps
Dolby Digital Audio             Russian         192 kbps        2.0 / 48 kHz / 192 kbps / Dolby Surround
Dolby Digital Audio             Russian         320 kbps        5.1 / 48 kHz / 320 kbps
Dolby Digital Audio             Russian         256 kbps        2.0 / 48 kHz / 256 kbps
Dolby Digital Audio             Ukrainian       192 kbps        2.0 / 48 kHz / 192 kbps
DTS-HD Master Audio             Russian         4024 kbps       5.1 / 48 kHz / 4024 kbps / 24-bit (DTS Core: 5.1 / 48 kHz / 1509 kbps / 24-bit)
DTS-HD Master Audio             Russian         4033 kbps       5.1 / 48 kHz / 4033 kbps / 24-bit (DTS Core: 5.1 / 48 kHz / 1509 kbps / 24-bit)
Dolby Digital Audio             Russian         384 kbps        5.1 / 48 kHz / 384 kbps
DTS-HD Master Audio             Russian         4038 kbps       5.1 / 48 kHz / 4038 kbps / 24-bit (DTS Core: 5.1 / 48 kHz / 1509 kbps / 24-bit)
Dolby Digital Audio             Russian         192 kbps        2.0 / 48 kHz / 192 kbps
DTS-HD Master Audio             English         4013 kbps       5.1 / 48 kHz / 4013 kbps / 24-bit (DTS Core: 5.1 / 48 kHz / 1509 kbps / 24-bit)
Dolby Digital Audio             English         224 kbps        2.0 / 48 kHz / 224 kbps / DN -4dB
Dolby Digital Audio             English         224 kbps        2.0 / 48 kHz / 224 kbps / DN -4dB

SUBTITLES:

Codec                           Language        Bitrate         Description     
-----                           --------        -------         -----------     
Presentation Graphics           Russian         23,472 kbps                     
Presentation Graphics           Russian         20,411 kbps                     
Presentation Graphics           Russian         17,194 kbps                     
Presentation Graphics           Russian         0,489 kbps                     
Presentation Graphics           Ukrainian       20,466 kbps                     
Presentation Graphics           English         30,016 kbps                     

FILES:

Name            Time In         Length          Size            Total Bitrate   
----            -------         ------          ----            -------------   
00000.M2TS      0:00:00.000     2:12:10.560     66 002 976 768  66 581         

CHAPTERS:

Number          Time In         Length          Avg Video Rate  Max 1-Sec Rate  Max 1-Sec Time  Max 5-Sec Rate  Max 5-Sec Time  Max 10Sec Rate  Max 10Sec Time  Avg Frame Size  Max Frame Size  Max Frame Time 
------          -------         ------          --------------  --------------  --------------  --------------  --------------  --------------  --------------  --------------  --------------  -------------- 
1               0:00:00.000     0:02:21.975     31 121 kbps     38 289 kbps     00:00:19.561    35 516 kbps     00:00:15.557    35 103 kbps     00:00:10.552    162 203 bytes   286 074 bytes   00:00:20.019   
2               0:02:21.975     0:01:36.388     31 479 kbps     35 639 kbps     00:03:55.902    33 177 kbps     00:03:53.358    32 702 kbps     00:02:34.821    164 118 bytes   291 481 bytes   00:03:48.061   
3               0:03:58.363     0:01:14.157     34 373 kbps     35 636 kbps     00:05:00.925    34 928 kbps     00:05:05.138    34 859 kbps     00:04:06.454    179 106 bytes   273 563 bytes   00:04:25.974   
4               0:05:12.520     0:00:57.890     34 383 kbps     35 531 kbps     00:06:06.366    34 914 kbps     00:06:04.822    34 730 kbps     00:05:43.760    179 257 bytes   262 878 bytes   00:05:57.732   
5               0:06:10.411     0:01:41.101     33 709 kbps     36 988 kbps     00:06:51.619    35 249 kbps     00:06:47.573    34 805 kbps     00:06:11.204    175 742 bytes   281 048 bytes   00:06:50.076   
6               0:07:51.512     0:04:07.205     33 036 kbps     35 856 kbps     00:08:53.449    35 006 kbps     00:09:35.449    34 893 kbps     00:08:53.574    172 235 bytes   327 486 bytes   00:08:54.867   
7               0:11:58.718     0:01:19.788     34 181 kbps     36 140 kbps     00:12:30.666    34 940 kbps     00:13:12.958    34 880 kbps     00:13:07.912    178 297 bytes   296 393 bytes   00:12:58.986   
8               0:13:18.506     0:00:45.169     34 143 kbps     35 734 kbps     00:13:21.383    35 024 kbps     00:13:30.893    34 809 kbps     00:13:40.152    178 006 bytes   301 970 bytes   00:13:22.301   
9               0:14:03.675     0:00:15.265     27 652 kbps     29 443 kbps     00:14:10.558    28 578 kbps     00:14:03.759    27 835 kbps     00:14:03.676    144 165 bytes   225 450 bytes   00:14:18.941   
10              0:14:18.941     0:02:39.952     34 340 kbps     35 843 kbps     00:16:35.869    34 970 kbps     00:16:33.117    34 835 kbps     00:14:40.838    178 986 bytes   281 630 bytes   00:16:37.621   
11              0:16:58.893     0:04:02.157     32 754 kbps     35 816 kbps     00:20:14.463    34 946 kbps     00:19:47.978    34 863 kbps     00:20:14.504    170 794 bytes   294 428 bytes   00:19:32.921   
12              0:21:01.051     0:01:41.519     34 007 kbps     35 947 kbps     00:22:19.421    34 960 kbps     00:21:24.741    34 860 kbps     00:21:19.736    177 224 bytes   258 027 bytes   00:22:28.055   
13              0:22:42.570     0:02:11.256     33 435 kbps     35 716 kbps     00:23:43.380    34 883 kbps     00:24:32.929    34 806 kbps     00:24:28.425    174 314 bytes   306 594 bytes   00:23:09.304   
14              0:24:53.826     0:01:57.074     32 950 kbps     35 798 kbps     00:25:13.803    35 008 kbps     00:25:09.799    34 810 kbps     00:25:05.712    171 788 bytes   302 196 bytes   00:25:37.244   
15              0:26:50.900     0:01:59.911     32 785 kbps     35 365 kbps     00:28:19.656    34 881 kbps     00:28:09.396    34 801 kbps     00:28:04.557    170 984 bytes   264 029 bytes   00:28:03.807   
16              0:28:50.812     0:04:34.233     31 890 kbps     35 902 kbps     00:31:53.745    34 878 kbps     00:31:49.824    34 155 kbps     00:32:43.336    166 237 bytes   259 343 bytes   00:31:49.365   
17              0:33:25.045     0:00:44.168     33 427 kbps     35 683 kbps     00:33:25.795    34 874 kbps     00:33:41.227    34 790 kbps     00:33:39.142    174 275 bytes   274 979 bytes   00:34:01.581   
18              0:34:09.214     0:01:17.786     31 707 kbps     35 611 kbps     00:34:30.943    34 872 kbps     00:34:48.503    34 534 kbps     00:34:47.502    165 306 bytes   275 273 bytes   00:34:40.453   
19              0:35:27.000     0:02:52.255     33 538 kbps     36 650 kbps     00:37:26.243    34 982 kbps     00:36:03.327    34 862 kbps     00:36:06.914    174 893 bytes   274 046 bytes   00:35:54.026   
20              0:38:19.255     0:04:14.922     33 302 kbps     36 063 kbps     00:41:49.173    35 024 kbps     00:39:49.512    34 726 kbps     00:38:24.677    173 592 bytes   301 384 bytes   00:39:50.554   
21              0:42:34.177     0:00:50.549     31 728 kbps     34 865 kbps     00:42:36.512    33 691 kbps     00:42:54.154    32 749 kbps     00:42:49.316    165 552 bytes   254 700 bytes   00:42:57.074   
22              0:43:24.727     0:01:54.280     32 096 kbps     38 313 kbps     00:45:07.538    34 578 kbps     00:45:03.784    33 337 kbps     00:43:24.893    167 275 bytes   328 319 bytes   00:45:19.007   
23              0:45:19.007     0:02:40.994     33 674 kbps     38 538 kbps     00:47:00.067    35 078 kbps     00:46:49.640    34 837 kbps     00:45:38.735    175 608 bytes   322 013 bytes   00:47:45.612   
24              0:48:00.002     0:04:39.612     32 847 kbps     36 692 kbps     00:51:50.023    34 997 kbps     00:48:41.460    34 798 kbps     00:48:24.818    171 222 bytes   272 400 bytes   00:51:53.902   
25              0:52:39.614     0:04:10.125     33 458 kbps     36 591 kbps     00:53:34.169    35 077 kbps     00:53:54.230    34 794 kbps     00:56:03.026    174 437 bytes   306 526 bytes   00:56:48.363   
26              0:56:49.739     0:01:06.066     32 307 kbps     36 191 kbps     00:57:11.469    34 438 kbps     00:57:33.616    34 268 kbps     00:57:33.783    168 433 bytes   285 221 bytes   00:57:27.986   
27              0:57:55.806     0:00:43.500     32 992 kbps     35 265 kbps     00:58:15.366    34 848 kbps     00:57:56.723    34 742 kbps     00:57:56.723    172 167 bytes   266 001 bytes   00:58:03.813   
28              0:58:39.307     0:02:10.756     33 283 kbps     35 677 kbps     00:59:20.848    34 873 kbps     01:00:06.394    34 675 kbps     00:59:43.162    173 523 bytes   271 425 bytes   01:00:42.722   
29              1:00:50.063     0:00:49.382     33 288 kbps     36 325 kbps     01:01:13.628    34 863 kbps     01:01:26.307    34 355 kbps     01:01:25.306    173 403 bytes   271 376 bytes   01:01:26.349   
30              1:01:39.446     0:02:39.533     32 688 kbps     37 860 kbps     01:04:15.643    34 863 kbps     01:03:04.989    34 416 kbps     01:01:44.117    170 465 bytes   283 029 bytes   01:02:10.143   
31              1:04:18.979     0:03:25.706     32 824 kbps     36 293 kbps     01:04:54.307    34 930 kbps     01:05:22.752    34 833 kbps     01:04:40.501    171 097 bytes   257 610 bytes   01:04:43.212   
32              1:07:44.686     0:05:14.188     33 685 kbps     36 244 kbps     01:12:24.381    35 009 kbps     01:11:44.842    34 900 kbps     01:10:36.440    175 641 bytes   292 371 bytes   01:11:41.005   
33              1:12:58.874     0:02:20.766     33 628 kbps     37 596 kbps     01:14:54.281    34 940 kbps     01:13:42.918    34 778 kbps     01:13:43.335    175 323 bytes   320 298 bytes   01:15:04.124   
34              1:15:19.640     0:03:55.693     31 936 kbps     39 628 kbps     01:16:47.144    35 034 kbps     01:17:27.184    34 926 kbps     01:17:25.015    166 469 bytes   354 280 bytes   01:17:37.778   
35              1:19:15.334     0:06:56.041     32 536 kbps     35 987 kbps     01:24:55.423    35 120 kbps     01:24:51.503    34 764 kbps     01:19:25.302    169 627 bytes   290 954 bytes   01:24:46.831   
36              1:26:11.375     0:02:38.992     33 795 kbps     36 153 kbps     01:28:15.123    34 969 kbps     01:27:20.985    34 884 kbps     01:27:15.980    176 192 bytes   259 179 bytes   01:27:20.026   
37              1:28:50.367     0:00:37.453     33 006 kbps     35 740 kbps     01:28:58.374    34 714 kbps     01:28:55.204    33 992 kbps     01:29:17.852    172 078 bytes   323 820 bytes   01:28:57.665   
38              1:29:27.821     0:00:39.706     34 514 kbps     35 382 kbps     01:30:02.146    34 895 kbps     01:29:48.633    34 793 kbps     01:29:35.661    180 129 bytes   257 691 bytes   01:29:38.831   
39              1:30:07.527     0:05:36.502     33 606 kbps     35 781 kbps     01:32:14.862    34 952 kbps     01:32:10.900    34 833 kbps     01:32:07.855    175 204 bytes   344 020 bytes   01:33:15.548   
40              1:35:44.030     0:03:14.528     31 649 kbps     37 205 kbps     01:37:37.559    34 746 kbps     01:37:48.529    34 621 kbps     01:37:42.690    165 002 bytes   308 972 bytes   01:35:47.032   
41              1:38:58.558     0:02:28.773     33 807 kbps     35 788 kbps     01:39:26.168    34 972 kbps     01:39:26.168    34 863 kbps     01:39:21.497    176 304 bytes   283 378 bytes   01:39:17.910   
42              1:41:27.331     0:03:57.863     32 987 kbps     36 038 kbps     01:44:03.153    34 870 kbps     01:44:59.251    34 823 kbps     01:45:00.043    171 952 bytes   343 545 bytes   01:42:01.615   
43              1:45:25.194     0:02:20.389     34 391 kbps     35 491 kbps     01:45:36.037    34 872 kbps     01:46:54.616    34 830 kbps     01:46:50.695    179 350 bytes   297 535 bytes   01:45:28.196   
44              1:47:45.584     0:00:25.943     33 058 kbps     35 322 kbps     01:48:09.941    33 428 kbps     01:48:06.521    33 239 kbps     01:47:53.049    172 074 bytes   245 020 bytes   01:47:46.585   
45              1:48:11.527     0:01:39.015     30 908 kbps     35 873 kbps     01:49:08.166    34 406 kbps     01:49:20.428    34 305 kbps     01:49:20.387    161 209 bytes   292 090 bytes   01:49:08.917   
46              1:49:50.542     0:01:19.454     33 117 kbps     36 584 kbps     01:50:44.262    35 065 kbps     01:50:31.833    34 893 kbps     01:50:26.828    172 566 bytes   264 453 bytes   01:50:31.291   
47              1:51:09.997     0:03:06.603     32 791 kbps     37 655 kbps     01:53:50.073    35 335 kbps     01:53:46.027    34 851 kbps     01:52:22.735    170 959 bytes   336 267 bytes   01:52:22.193   
48              1:54:16.600     0:04:06.745     32 813 kbps     39 737 kbps     01:54:33.783    35 324 kbps     01:55:58.284    34 892 kbps     01:55:53.321    171 101 bytes   392 647 bytes   01:56:37.740   
49              1:58:23.346     0:01:21.498     32 834 kbps     36 386 kbps     01:58:48.913    34 964 kbps     01:59:20.653    34 871 kbps     01:59:15.731    171 180 bytes   270 541 bytes   01:58:57.755   
50              1:59:44.844     0:02:16.345     34 346 kbps     36 417 kbps     01:59:49.056    34 954 kbps     02:00:56.749    34 844 kbps     02:00:51.827    179 008 bytes   247 177 bytes   02:01:52.805   
51              2:02:01.189     0:01:48.232     30 705 kbps     36 135 kbps     02:02:50.905    34 981 kbps     02:03:25.356    34 891 kbps     02:03:22.436    160 083 bytes   336 229 bytes   02:03:34.073   
52              2:03:49.422     0:01:24.293     33 772 kbps     37 010 kbps     02:04:40.764    35 215 kbps     02:04:36.760    34 825 kbps     02:05:03.203    176 073 bytes   267 144 bytes   02:04:41.223   
53              2:05:13.715     0:01:14.990     33 465 kbps     36 319 kbps     02:05:39.615    34 572 kbps     02:06:23.575    34 447 kbps     02:06:18.696    174 565 bytes   253 456 bytes   02:05:22.097   
54              2:06:28.706     0:00:50.925     33 385 kbps     35 706 kbps     02:06:57.192    34 907 kbps     02:06:36.964    34 815 kbps     02:07:09.621    173 911 bytes   273 604 bytes   02:07:06.994   
55              2:07:19.632     0:04:50.927     28 736 kbps     38 910 kbps     02:08:09.056    35 917 kbps     02:08:05.135    35 322 kbps     02:08:00.130    149 868 bytes   401 718 bytes   02:08:09.681   

STREAM DIAGNOSTICS:

File            PID             Type            Codec           Language                Seconds                 Bitrate                 Bytes           Packets         
----            ---             ----            -----           --------                --------------          --------------          -------------   -----           
00000.M2TS      4113 (0x1011)   0x1B            AVC                                     7930,422                32 840                  32 554 856 927  177 039 772     
00000.M2TS      4352 (0x1100)   0x82            DTS             rus (Russian)           7930,422                754                     747 755 776     4 459 776       
00000.M2TS      4353 (0x1101)   0x81            AC3             ukr (Ukrainian)         7930,422                448                     443 998 464     2 477 670       
00000.M2TS      4354 (0x1102)   0x82            DTS             rus (Russian)           7930,422                768                     761 331 712     4 460 933       
00000.M2TS      4355 (0x1103)   0x86            DTS-HD MA       rus (Russian)           7930,422                4 030                   3 995 188 520   22 950 834     
00000.M2TS      4356 (0x1104)   0x86            DTS-HD MA       rus (Russian)           7930,422                4 031                   3 995 859 404   22 954 392     
00000.M2TS      4357 (0x1105)   0x81            AC3             rus (Russian)           7930,422                448                     443 994 880     2 477 650       
00000.M2TS      4358 (0x1106)   0x81            AC3             rus (Russian)           7930,422                448                     443 996 672     2 477 660       
00000.M2TS      4359 (0x1107)   0x81            AC3             rus (Russian)           7930,422                192                     190 220 544     1 238 415       
00000.M2TS      4360 (0x1108)   0x81            AC3             rus (Russian)           7930,422                320                     317 139 200     1 982 120       
00000.M2TS      4361 (0x1109)   0x81            AC3             rus (Russian)           7930,422                249                     247 008 256     1 447 314       
00000.M2TS      4362 (0x110A)   0x81            AC3             ukr (Ukrainian)         7930,422                192                     190 333 440     1 239 150       
00000.M2TS      4363 (0x110B)   0x86            DTS-HD MA       rus (Russian)           7930,422                4 025                   3 989 502 044   22 920 099     
00000.M2TS      4364 (0x110C)   0x86            DTS-HD MA       rus (Russian)           7930,422                4 033                   3 998 329 816   22 967 316     
00000.M2TS      4365 (0x110D)   0x81            AC3             rus (Russian)           7930,422                384                     380 560 896     2 229 849       
00000.M2TS      4366 (0x110E)   0x86            DTS-HD MA       rus (Russian)           7930,422                4 038                   4 003 025 152   22 992 302     
00000.M2TS      4367 (0x110F)   0x81            AC3             rus (Russian)           7930,422                192                     190 257 408     1 238 655       
00000.M2TS      4368 (0x1110)   0x86            DTS-HD MA       eng (English)           7930,422                4 013                   3 978 573 952   22 860 136     
00000.M2TS      4369 (0x1111)   0x81            AC3             eng (English)           7930,422                224                     222 055 680     1 239 150       
00000.M2TS      4370 (0x1112)   0x81            AC3             eng (English)           7930,422                224                     222 055 680     1 239 150       
00000.M2TS      4608 (0x1200)   0x90            PGS             rus (Russian)           7930,422                23                      23 267 981      135 542         
00000.M2TS      4609 (0x1201)   0x90            PGS             rus (Russian)           7930,422                20                      20 233 444      118 531         
00000.M2TS      4610 (0x1202)   0x90            PGS             rus (Russian)           7930,422                17                      17 044 244      101 818         
00000.M2TS      4611 (0x1203)   0x90            PGS             rus (Russian)           7930,422                0                       484 895         2 788           
00000.M2TS      4612 (0x1204)   0x90            PGS             ukr (Ukrainian)         7930,422                20                      20 288 721      120 237         
00000.M2TS      4613 (0x1205)   0x90            PGS             eng (English)           7930,422                30                      29 755 099      171 695         




Крепкий орешек 2 / Die Hard 2

Год выпуска: 1990
Страна: США / 20th Century Fox Film Corporation, Gordon Company, Silver Pictures
Жанр: Боевик, Триллер
Продолжительность: 02:03:23
Перевод: Профессиональный (полное дублирование)
Язык субтитров: Русский (Blu-ray CEE), Русский (Киномания), Русский (Forced), Украинский, Английский
Режиссер:
  • Ренни Харлин

В ролях:
  • Брюс Уиллис, Бонни Беделиа, Уильям Атертон, Уильям Сэдлер, Reginald VelJohnson, Франко Неро, Джон Амос, Дэннис Франц, Арт Эванс, Фред Далтон Томпсон, Том Бауэр, Шила МакКарти, Дон Харви, Tony Ganios, Питер Нельсон, Роберт Патрик, Майкл Каннингэм, Джон Легуизамо, Том Верика, Джон Костелло, Вонди Куртис-Холл

Описание: В канун Рождества группа террористов захватила международный аэропорт и теперь удерживает тысячи путешествующих в качестве заложников. Террористы — банда отступников из первоклассно вооруженных коммандос, возглавляемых одержимым жестокостью офицером. Их цель — спасти наркобарона.

Банда подготовлена ко всевозможным случайностям, за исключением одной — встречи с Джоном Макклейном. Брюс Уиллис возвращается в роли супергероя-полицейского, который сражается не только с террористами, но и с некомпетентным шефом полиции аэропорта, тупоголовым начальником антитеррористического подразделения и страшным снежным бураном.

Заложники мечутся, смертельно испуганные и растерянные. А Джон Макклейн ведет схватку и со временем. Его жена находится в одном из самолетов, кружащих над аэропортом. А топливо — на пределе…

РАЗДАЧА ОТ:
Качество: Blu-Ray Remux
Формат: BDMV
Видео кодек: MPEG-4 AVC
Аудио кодек: DTS HD/MA, DTS, AC3
Видео: MPEG-4 AVC/H.264, 1920x1080, ~31999 Кбит/сек, 23,976 кадра/сек
Аудио #1: DTS, 768 Кбит/сек, 6 каналов, 48,0 КГц, 24 бит (Русский - Многоголосый ''ОРТ'')
Аудио #2: AC3, 448 Кбит/сек, 6 каналов, 48,0 КГц, 16 бит (Украинский - Многоголосый ''1+1'')
Аудио #3: DTS, 768 Кбит/сек, 6 каналов, 48,0 КГц, 24 бит (Русский - Дублированный ''Blu-ray CEE'')
Аудио #4: DTS HD/MA, 2214 Кбит/сек, 6 каналов, 16 бит (Русский - Многоголосый ''Киномания'')
Аудио #5: DTS HD/MA, 2214 Кбит/сек, 6 каналов, 16 бит (Русский - Многоголосый ''Карусель/Супербит'')
Аудио #6: AC3, 448 Кбит/сек, 6 каналов, 48,0 КГц, 16 бит (Русский - Многоголосый ''Киномания/Домашнее Видео'')
Аудио #7: AC3, 384 Кбит/сек, 6 каналов, 48,0 КГц, 16 бит (Русский - Многоголосый ''НТВ+'')
Аудио #8: AC3, 192 Кбит/сек, 2 канала, 48,0 КГц, 16 бит (Русский - Многоголосый ''Гемини R5'')
Аудио #9: AC3, 192 Кбит/сек, 2 канала, 48,0 КГц, 16 бит (Русский - Многоголосый ''Премьер Видео Фильм'')
Аудио #10: AC3, 192 Кбит/сек, 2 канала, 48,0 КГц, 16 бит (Русский - Многоголосый ''Лазер Видео'')
Аудио #11: AC3, 192 Кбит/сек, 2 канала, 48,0 КГц, 16 бит (Украинский - Двухголосый ''ICTV'')
Аудио #12: DTS HD/MA, 2164 Кбит/сек, 6 каналов, 16 бит (Русский - Авторский ''А. Гаврилов'')
Аудио #13: DTS HD/MA, 2169 Кбит/сек, 6 каналов, 16 бит (Русский - Авторский ''Ю. Живов'')
Аудио #14: DTS HD/MA, 2164 Кбит/сек, 6 каналов, 16 бит (Русский - Авторский ''В. Горчаков'')
Аудио #15: DTS HD/MA, 2161 Кбит/сек, 6 каналов, 24 бит (Русский - Авторский ''М. Иванов'')
Аудио #16: AC3, 192 Кбит/сек, 2 канала, 48,0 КГц, 16 бит (Русский - Любительский одноголосый ''Петербуржец'')
Аудио #17: AC3, 192 Кбит/сек, 2 канала, 48,0 КГц, 16 бит (Русский - Любительский одноголосый ''Автор не известен'')
Аудио #18: DTS HD/MA, 2271 Кбит/сек, 6 каналов, 24 бит (Английский - Оригинал)
Аудио #19: AC3, 224 Кбит/сек, 2 канала, 48,0 КГц, 16 бит (Английский - Оригинал ''Комментарии - Renny Harlin'')

Disc Title: DIE_HARD_2_HDCLUB
Disc Size: 51 912 108 276 bytes
Protection: AACS
BD-Java: No
BDInfo: 0.5.8

Notes:

BDINFO HOME:
Cinema Squid
http://www.cinemasquid.com/blu-ray/tools/bdinfo

INCLUDES FORUMS REPORT FOR:
AVS Forum Blu-ray Audio and Video Specifications Thread
http://www.avsforum.com/avs-vb/showthread.php?t=1155731

********************
PLAYLIST: 00000.MPLS
********************

Код:

                                                                                                                Total   Video                                             
Title                                                           Codec   Length  Movie Size      Disc Size       Bitrate Bitrate Main Audio Track                          Secondary Audio Track
-----                                                           ------  ------- --------------  --------------  ------- ------- ------------------                        ---------------------
00000.MPLS                                                      AVC     2:03:23 51 911 989 248  51 912 108 276  56,10   32,00   DTS 5.1 768Kbps (48kHz/24-bit)            DTS 5.1 768Kbps (48kHz/24-bit)


Код:



DISC INFO:

Disc Title:     DIE_HARD_2_HDCLUB
Disc Size:      51 912 108 276 bytes
Protection:     AACS
BD-Java:        No
BDInfo:         0.5.8

PLAYLIST REPORT:

Name:                   00000.MPLS
Length:                 2:03:23.061 (h:m:s.ms)
Size:                   51 911 989 248 bytes
Total Bitrate:          56,10 Mbps

VIDEO:

Codec                   Bitrate             Description     
-----                   -------             -----------     
MPEG-4 AVC Video        31999 kbps          1080p / 23,976 fps / 16:9 / High Profile 4.1

AUDIO:

Codec                           Language        Bitrate         Description     
-----                           --------        -------         -----------     
DTS Audio                       Russian         768 kbps        5.1 / 48 kHz / 768 kbps / 24-bit
Dolby Digital Audio             Ukrainian       448 kbps        5.1 / 48 kHz / 448 kbps
DTS Audio                       Russian         768 kbps        5.1 / 48 kHz / 768 kbps / 24-bit
DTS-HD Master Audio             Russian         2214 kbps       5.1 / 48 kHz / 2214 kbps / 16-bit (DTS Core: 5.1 / 48 kHz / 1509 kbps / 16-bit)
DTS-HD Master Audio             Russian         2214 kbps       5.1 / 48 kHz / 2214 kbps / 16-bit (DTS Core: 5.1 / 48 kHz / 1509 kbps / 16-bit)
Dolby Digital Audio             Russian         448 kbps        5.1 / 48 kHz / 448 kbps
Dolby Digital Audio             Russian         384 kbps        5.1 / 48 kHz / 384 kbps
Dolby Digital Audio             Russian         192 kbps        2.0 / 48 kHz / 192 kbps
Dolby Digital Audio             Russian         192 kbps        2.0 / 48 kHz / 192 kbps
Dolby Digital Audio             Russian         192 kbps        2.0 / 48 kHz / 192 kbps
Dolby Digital Audio             Ukrainian       192 kbps        2.0 / 48 kHz / 192 kbps
DTS-HD Master Audio             Russian         2164 kbps       5.1 / 48 kHz / 2164 kbps / 16-bit (DTS Core: 5.1 / 48 kHz / 1509 kbps / 16-bit)
DTS-HD Master Audio             Russian         2169 kbps       5.1 / 48 kHz / 2169 kbps / 16-bit (DTS Core: 5.1 / 48 kHz / 1509 kbps / 16-bit)
DTS-HD Master Audio             Russian         2164 kbps       5.1 / 48 kHz / 2164 kbps / 16-bit (DTS Core: 5.1 / 48 kHz / 1509 kbps / 16-bit)
DTS-HD Master Audio             Russian         2161 kbps       5.1 / 48 kHz / 2161 kbps / 16-bit (DTS Core: 5.1 / 48 kHz / 1509 kbps / 16-bit)
Dolby Digital Audio             Russian         192 kbps        2.0 / 48 kHz / 192 kbps
Dolby Digital Audio             Russian         192 kbps        2.0 / 48 kHz / 192 kbps
DTS-HD Master Audio             English         2271 kbps       5.1 / 48 kHz / 2271 kbps / 24-bit (DTS Core: 5.1 / 48 kHz / 1509 kbps / 24-bit)
Dolby Digital Audio             English         224 kbps        2.0 / 48 kHz / 224 kbps / DN -4dB

SUBTITLES:

Codec                           Language        Bitrate         Description     
-----                           --------        -------         -----------     
Presentation Graphics           Russian         28,511 kbps                     
Presentation Graphics           Russian         20,878 kbps                     
Presentation Graphics           Russian         27,437 kbps                     
Presentation Graphics           Russian         0,042 kbps                     
Presentation Graphics           Ukrainian       23,265 kbps                     
Presentation Graphics           English         32,338 kbps                     

FILES:

Name            Time In         Length          Size            Total Bitrate   
----            -------         ------          ----            -------------   
00000.M2TS      0:00:00.000     2:03:23.061     51 911 989 248  56 098         

CHAPTERS:

Number          Time In         Length          Avg Video Rate  Max 1-Sec Rate  Max 1-Sec Time  Max 5-Sec Rate  Max 5-Sec Time  Max 10Sec Rate  Max 10Sec Time  Avg Frame Size  Max Frame Size  Max Frame Time 
------          -------         ------          --------------  --------------  --------------  --------------  --------------  --------------  --------------  --------------  --------------  -------------- 
1               0:00:00.000     0:06:14.582     32 639 kbps     40 360 kbps     00:00:21.563    36 571 kbps     00:00:17.559    36 280 kbps     00:00:12.554    170 144 bytes   346 877 bytes   00:00:07.006   
2               0:06:14.582     0:01:59.953     32 295 kbps     36 266 kbps     00:06:18.127    35 906 kbps     00:06:23.591    35 841 kbps     00:06:17.126    168 372 bytes   334 963 bytes   00:08:14.535   
3               0:08:14.535     0:04:01.157     34 418 kbps     38 012 kbps     00:11:14.090    35 994 kbps     00:10:28.544    35 847 kbps     00:09:27.233    179 441 bytes   353 823 bytes   00:08:15.536   
4               0:12:15.693     0:04:05.745     32 406 kbps     36 823 kbps     00:14:37.960    35 635 kbps     00:14:05.678    35 243 kbps     00:14:04.426    168 948 bytes   278 339 bytes   00:15:51.617   
5               0:16:21.438     0:02:11.255     33 631 kbps     36 686 kbps     00:18:09.963    35 908 kbps     00:18:04.041    35 737 kbps     00:17:59.453    175 337 bytes   252 877 bytes   00:18:13.550   
6               0:18:32.694     0:00:59.434     30 453 kbps     35 848 kbps     00:18:34.404    33 363 kbps     00:18:32.694    31 891 kbps     00:18:32.694    158 769 bytes   263 786 bytes   00:18:47.376   
7               0:19:32.128     0:03:50.605     34 610 kbps     37 218 kbps     00:22:33.060    36 043 kbps     00:20:53.335    35 830 kbps     00:20:55.879    180 439 bytes   299 423 bytes   00:23:01.088   
8               0:23:22.734     0:01:47.191     29 737 kbps     35 108 kbps     00:25:06.630    32 997 kbps     00:25:04.920    31 992 kbps     00:24:59.915    155 039 bytes   264 319 bytes   00:25:08.965   
9               0:25:09.925     0:01:53.320     32 389 kbps     36 221 kbps     00:26:15.865    34 775 kbps     00:26:53.862    34 210 kbps     00:26:52.902    168 861 bytes   264 239 bytes   00:26:20.537   
10              0:27:03.246     0:02:44.831     33 167 kbps     36 270 kbps     00:29:37.942    35 618 kbps     00:29:27.599    35 044 kbps     00:29:21.551    172 916 bytes   291 527 bytes   00:28:59.863   
11              0:29:48.077     0:06:58.167     32 585 kbps     36 411 kbps     00:30:56.813    35 716 kbps     00:30:06.596    35 421 kbps     00:30:01.633    169 883 bytes   277 557 bytes   00:30:57.689   
12              0:36:46.245     0:02:28.523     33 672 kbps     36 740 kbps     00:38:24.218    35 658 kbps     00:38:24.301    34 576 kbps     00:38:10.997    175 552 bytes   265 264 bytes   00:38:39.567   
13              0:39:14.768     0:00:48.006     34 456 kbps     35 955 kbps     00:39:17.438    35 538 kbps     00:39:27.698    35 291 kbps     00:39:22.693    179 636 bytes   244 866 bytes   00:39:37.333   
14              0:40:02.775     0:03:34.380     32 913 kbps     36 481 kbps     00:42:39.223    35 697 kbps     00:40:12.159    35 585 kbps     00:40:12.159    171 592 bytes   311 612 bytes   00:42:42.434   
15              0:43:37.156     0:05:21.320     33 363 kbps     37 145 kbps     00:45:07.788    35 849 kbps     00:45:07.704    35 706 kbps     00:48:47.215    173 941 bytes   324 902 bytes   00:45:21.510   
16              0:48:58.477     0:00:58.557     31 073 kbps     35 835 kbps     00:49:08.070    33 965 kbps     00:48:58.894    33 021 kbps     00:49:00.937    162 001 bytes   222 522 bytes   00:48:59.478   
17              0:49:57.035     0:02:33.695     33 488 kbps     36 836 kbps     00:51:42.349    35 871 kbps     00:50:03.709    35 792 kbps     00:49:58.453    174 589 bytes   262 973 bytes   00:52:05.831   
18              0:52:30.730     0:05:58.941     32 605 kbps     38 373 kbps     00:57:12.846    35 668 kbps     00:56:44.234    35 467 kbps     00:54:32.018    169 985 bytes   323 912 bytes   00:55:25.071   
19              0:58:29.671     0:03:14.278     34 176 kbps     36 721 kbps     01:00:22.785    36 020 kbps     01:00:18.823    35 876 kbps     01:00:13.735    178 176 bytes   339 243 bytes   00:59:00.536   
20              1:01:43.950     0:00:55.971     32 271 kbps     35 104 kbps     01:02:26.033    34 494 kbps     01:02:23.573    33 879 kbps     01:02:23.448    168 245 bytes   240 029 bytes   01:02:38.921   
21              1:02:39.921     0:02:07.461     33 875 kbps     36 351 kbps     01:03:55.915    35 738 kbps     01:03:08.743    35 679 kbps     01:03:04.113    176 612 bytes   265 803 bytes   01:03:10.036   
22              1:04:47.383     0:01:51.028     33 692 kbps     36 633 kbps     01:06:05.002    35 882 kbps     01:05:53.991    35 737 kbps     01:05:50.404    175 658 bytes   258 582 bytes   01:05:03.232   
23              1:06:38.411     0:01:33.842     31 938 kbps     35 887 kbps     01:08:08.334    33 958 kbps     01:06:38.411    33 303 kbps     01:07:35.926    166 509 bytes   241 025 bytes   01:08:12.254   
24              1:08:12.254     0:01:42.185     31 943 kbps     36 267 kbps     01:08:16.175    35 225 kbps     01:08:53.087    34 744 kbps     01:08:48.457    166 537 bytes   338 390 bytes   01:08:19.970   
25              1:09:54.439     0:01:05.315     31 928 kbps     36 867 kbps     01:10:32.019    35 976 kbps     01:10:38.108    35 775 kbps     01:10:48.160    166 457 bytes   332 948 bytes   01:10:33.020   
26              1:10:59.755     0:05:23.489     33 300 kbps     37 286 kbps     01:15:12.216    35 946 kbps     01:15:44.414    35 659 kbps     01:11:36.500    173 612 bytes   404 330 bytes   01:11:28.826   
27              1:16:23.245     0:05:33.123     32 477 kbps     37 506 kbps     01:18:24.241    35 977 kbps     01:18:50.475    35 798 kbps     01:16:53.025    169 322 bytes   305 778 bytes   01:17:50.457   
28              1:21:56.369     0:01:30.841     32 750 kbps     37 937 kbps     01:22:25.315    35 851 kbps     01:22:21.311    35 695 kbps     01:22:16.306    170 742 bytes   277 749 bytes   01:22:28.777   
29              1:23:27.210     0:02:13.675     32 965 kbps     36 533 kbps     01:23:34.509    35 961 kbps     01:23:30.505    35 278 kbps     01:23:28.002    171 862 bytes   250 896 bytes   01:23:35.218   
30              1:25:40.885     0:05:13.104     33 285 kbps     36 973 kbps     01:30:04.023    35 889 kbps     01:27:02.342    35 648 kbps     01:27:50.515    173 535 bytes   267 556 bytes   01:30:21.624   
31              1:30:53.990     0:02:23.643     32 829 kbps     38 880 kbps     01:32:28.042    35 578 kbps     01:31:00.413    35 307 kbps     01:32:49.897    171 155 bytes   297 853 bytes   01:32:28.626   
32              1:33:17.633     0:01:05.524     32 490 kbps     36 262 kbps     01:34:08.017    35 662 kbps     01:33:57.673    35 607 kbps     01:33:58.507    169 386 bytes   255 856 bytes   01:34:04.055   
33              1:34:23.157     0:06:46.530     33 496 kbps     36 850 kbps     01:37:42.898    35 948 kbps     01:37:46.110    35 821 kbps     01:40:43.787    174 633 bytes   334 313 bytes   01:36:25.696   
34              1:41:09.688     0:01:22.166     34 644 kbps     36 676 kbps     01:42:24.012    35 998 kbps     01:42:19.967    35 885 kbps     01:42:15.003    180 529 bytes   284 423 bytes   01:42:31.103   
35              1:42:31.854     0:02:21.306     31 830 kbps     36 451 kbps     01:42:43.240    35 875 kbps     01:42:46.577    35 737 kbps     01:42:34.064    165 993 bytes   249 208 bytes   01:44:18.001   
36              1:44:53.161     0:01:43.269     32 238 kbps     35 941 kbps     01:45:08.635    35 089 kbps     01:45:06.174    34 414 kbps     01:45:06.091    168 075 bytes   247 998 bytes   01:45:09.010   
37              1:46:36.430     0:02:36.824     32 955 kbps     36 418 kbps     01:48:21.494    35 625 kbps     01:48:48.647    34 747 kbps     01:48:47.562    171 767 bytes   244 032 bytes   01:46:45.649   
38              1:49:13.255     0:04:21.176     32 467 kbps     36 493 kbps     01:50:49.934    35 814 kbps     01:50:46.931    35 705 kbps     01:50:57.484    169 297 bytes   287 348 bytes   01:53:06.863   
39              1:53:34.432     0:02:34.279     33 648 kbps     36 407 kbps     01:54:54.846    35 807 kbps     01:54:51.217    35 564 kbps     01:54:51.884    175 424 bytes   276 295 bytes   01:55:22.582   
40              1:56:08.711     0:07:14.350     16 223 kbps     37 126 kbps     01:56:44.789    35 932 kbps     01:56:40.785    35 838 kbps     01:56:35.696    84 585 bytes    345 745 bytes   02:02:17.580   

STREAM DIAGNOSTICS:

File            PID             Type            Codec           Language                Seconds                 Bitrate                 Bytes           Packets         
----            ---             ----            -----           --------                --------------          --------------          -------------   -----           
00000.M2TS      4113 (0x1011)   0x1B            AVC                                     7402,979                31 999                  29 610 895 920  161 033 172     
00000.M2TS      4352 (0x1100)   0x82            DTS             rus (Russian)           7402,979                754                     698 137 844     4 163 844       
00000.M2TS      4353 (0x1101)   0x81            AC3             ukr (Ukrainian)         7402,979                448                     414 537 984     2 313 270       
00000.M2TS      4354 (0x1102)   0x82            DTS             rus (Russian)           7402,979                768                     710 694 912     4 164 228       
00000.M2TS      4355 (0x1103)   0x86            DTS-HD MA       rus (Russian)           7402,979                2 214                   2 048 698 432   12 283 806     
00000.M2TS      4356 (0x1104)   0x86            DTS-HD MA       rus (Russian)           7402,979                2 215                   2 049 246 260   12 287 345     
00000.M2TS      4357 (0x1105)   0x81            AC3             rus (Russian)           7402,979                448                     414 500 352     2 313 060       
00000.M2TS      4358 (0x1106)   0x81            AC3             rus (Russian)           7402,979                382                     353 505 792     2 071 323       
00000.M2TS      4359 (0x1107)   0x81            AC3             rus (Russian)           7402,979                192                     177 625 344     1 156 415       
00000.M2TS      4360 (0x1108)   0x81            AC3             rus (Russian)           7402,979                192                     177 668 352     1 156 695       
00000.M2TS      4361 (0x1109)   0x81            AC3             rus (Russian)           7402,979                192                     177 616 896     1 156 360       
00000.M2TS      4362 (0x110A)   0x81            AC3             ukr (Ukrainian)         7402,979                192                     177 657 600     1 156 625       
00000.M2TS      4363 (0x110B)   0x86            DTS-HD MA       rus (Russian)           7402,979                2 164                   2 002 530 840   12 038 974     
00000.M2TS      4364 (0x110C)   0x86            DTS-HD MA       rus (Russian)           7402,979                2 169                   2 006 814 484   12 061 377     
00000.M2TS      4365 (0x110D)   0x86            DTS-HD MA       rus (Russian)           7402,979                2 164                   2 002 341 284   12 037 253     
00000.M2TS      4366 (0x110E)   0x86            DTS-HD MA       rus (Russian)           7402,979                2 161                   1 999 641 064   12 022 789     
00000.M2TS      4367 (0x110F)   0x81            AC3             rus (Russian)           7402,979                192                     177 612 288     1 156 330       
00000.M2TS      4368 (0x1110)   0x81            AC3             rus (Russian)           7402,979                192                     177 613 056     1 156 335       
00000.M2TS      4369 (0x1111)   0x86            DTS-HD MA       eng (English)           7402,979                2 271                   2 101 232 476   12 575 430     
00000.M2TS      4370 (0x1112)   0x81            AC3             eng (English)           7402,979                224                     207 286 016     1 156 730       
00000.M2TS      4608 (0x1200)   0x90            PGS             rus (Russian)           7402,979                29                      26 383 425      150 944         
00000.M2TS      4609 (0x1201)   0x90            PGS             rus (Russian)           7402,979                21                      19 320 551      112 705         
00000.M2TS      4610 (0x1202)   0x90            PGS             rus (Russian)           7402,979                27                      25 389 287      147 898         
00000.M2TS      4611 (0x1203)   0x90            PGS             rus (Russian)           7402,979                0                       38 505          230             
00000.M2TS      4612 (0x1204)   0x90            PGS             ukr (Ukrainian)         7402,979                23                      21 529 463      124 133         
00000.M2TS      4613 (0x1205)   0x90            PGS             eng (English)           7402,979                32                      29 925 303      169 940         




Крепкий орешек 3: Возмездие / Die Hard: With a Vengeance

Год выпуска: 1995
Страна: США / 20th Century Fox Film Corporation, Cinergi Pictures Entertainment Inc.
Жанр: Боевик, Криминал, Триллер
Продолжительность: 02:08:31
Перевод: Профессиональный (многоголосый, закадровый)
Язык субтитров: Русский (ненормативная лексика), Русский (V1), Русский (V2), Русский (Forced), Украинский, Английский
Режиссер:
  • Джон МакТирнан

В ролях:
  • Брюс Уиллис, Джереми Айронс, Сэмюэл Л. Джексон, Грэхэм Грин, Коллин Кэмп, Ларри Бриггман, Энтони Пек, Николас Уаймэн, Сэм Филлипс, Кевин Чамберлен, Шарон Вашингтон, Stephen Pearlman, Майкл Александер Джексон, Aldis Hodge, Mischa Hausserman, Эдвин Ходж, Роберт Седжвик, Tony Halme, Билл Крист, Энтони Томас, Гленн Херман

Описание: На улицах Нью-Йорка офицер полиции Джон Макклейн видел все, что только возможно. На этот раз для того, чтобы отомстить Макклейну, террорист Саймон, виртуозно устраивающий взрывы, заставляет героя — полицейского играть в смертельную игру. Ставка — город Нью-Йорк.

Макклейн вынужден метаться по городу, следуя телефонным указаниям Саймона, готового разнести пол — Нью-Йорка за малейшее отклонение от его требований. И в то время, как вся полиция города занята поисками террористов, преступники похищают золотой запас Национального банка США.

У Макклейна бывали неудачные деньки за годы службы в полиции, но сегодня у него, похоже, будет исключительно скверный день…

РАЗДАЧА ОТ:
Качество: Blu-Ray Remux
Формат: BDMV
Видео кодек: MPEG-4 AVC
Аудио кодек: DTS HD/MA, DTS, AC3
Видео: 1920x1080, ~28396 Кбит/сек, 23,976 кадра/сек
Аудио #1: DTS, 768 Кбит/сек, 6 каналов, 48,0 КГц, 24 бит (Русский - Многоголосый ''ОРТ'')
Аудио #2: AC3, 448 Кбит/сек, 6 каналов, 48,0 КГц, 16 бит (Украинский - Многоголосый ''1+1'')
Аудио #3: AC3, 448 Кбит/сек, 6 каналов, 48,0 КГц, 16 бит (Русский - Двухголосый ''Twister'')
Аудио #4: DTS HD/MA, 2300 Кбит/сек, 6 каналов, 16 бит (Русский - Многоголосый ''Киномания'')
Аудио #5: DTS HD/MA, 2301 Кбит/сек, 6 каналов, 16 бит (Русский - Многоголосый ''Карусель/Супербит'')
Аудио #6: AC3, 448 Кбит/сек, 6 каналов, 48,0 КГц, 16 бит (Русский - Многоголосый ''R5 Гемини'')
Аудио #7: AC3, 192 Кбит/сек, 2 канала, 48,0 КГц, 16 бит (Украинский - Двухголосый ''ICTV'')
Аудио #8: DTS HD/MA, 2285 Кбит/сек, 6 каналов, 16 бит (Русский - Авторский ''А. Гаврилов'')
Аудио #9: DTS HD/MA, 2288 Кбит/сек, 6 каналов, 16 бит (Русский - Авторский ''Ю. Живов'')
Аудио #10: AC3, 192 Кбит/сек, 2 канала, 48,0 КГц, 16 бит (Русский - Авторский ''В. Горчаков'')
Аудио #11: AC3, 192 Кбит/сек, 2 канала, 48,0 КГц, 16 бит (Русский - Авторский ''С. Визгунов'')
Аудио #12: AC3, 192 Кбит/сек, 2 канала, 48,0 КГц, 16 бит (Русский - Авторский ''А. Кашкин'')
Аудио #13: DTS HD/MA, 2703 Кбит/сек, 6 каналов, 24 бит (Английский - Оригинал)
Аудио #14: AC3, 224 Кбит/сек, 2 канала, 48,0 КГц, 16 бит (Английский - Оригинал ''Комментарии - John McTiernan, Jonathan Hensleigh, Tom Sherak'')

Disc Title: DIE_HARD_3_HDCLUB
Disc Size: 45 290 192 212 bytes
Protection: AACS
BD-Java: No
BDInfo: 0.5.8

Notes:

BDINFO HOME:
Cinema Squid
http://www.cinemasquid.com/blu-ray/tools/bdinfo

INCLUDES FORUMS REPORT FOR:
AVS Forum Blu-ray Audio and Video Specifications Thread
http://www.avsforum.com/avs-vb/showthread.php?t=1155731

********************
PLAYLIST: 00000.MPLS
********************

Код:

                                                                                                                Total   Video                                             
Title                                                           Codec   Length  Movie Size      Disc Size       Bitrate Bitrate Main Audio Track                          Secondary Audio Track
-----                                                           ------  ------- --------------  --------------  ------- ------- ------------------                        ---------------------
00000.MPLS                                                      AVC     2:08:31 45 290 072 064  45 290 192 212  46,98   28,40   DTS 5.1 768Kbps (48kHz/24-bit)            DD AC3 5.1 448Kbps


Код:



DISC INFO:

Disc Title:     DIE_HARD_3_HDCLUB
Disc Size:      45 290 192 212 bytes
Protection:     AACS
BD-Java:        No
BDInfo:         0.5.8

PLAYLIST REPORT:

Name:                   00000.MPLS
Length:                 2:08:31.744 (h:m:s.ms)
Size:                   45 290 072 064 bytes
Total Bitrate:          46,98 Mbps

VIDEO:

Codec                   Bitrate             Description     
-----                   -------             -----------     
MPEG-4 AVC Video        28396 kbps          1080p / 23,976 fps / 16:9 / High Profile 4.1

AUDIO:

Codec                           Language        Bitrate         Description     
-----                           --------        -------         -----------     
DTS Audio                       Russian         768 kbps        5.1 / 48 kHz / 768 kbps / 24-bit
Dolby Digital Audio             Ukrainian       448 kbps        5.1 / 48 kHz / 448 kbps / DN -4dB
Dolby Digital Audio             Russian         448 kbps        5.1 / 48 kHz / 448 kbps
DTS-HD Master Audio             Russian         2300 kbps       5.1 / 48 kHz / 2300 kbps / 16-bit (DTS Core: 5.1 / 48 kHz / 1509 kbps / 16-bit)
DTS-HD Master Audio             Russian         2301 kbps       5.1 / 48 kHz / 2301 kbps / 16-bit (DTS Core: 5.1 / 48 kHz / 1509 kbps / 16-bit)
Dolby Digital Audio             Russian         448 kbps        5.1 / 48 kHz / 448 kbps / DN -4dB
Dolby Digital Audio             Ukrainian       192 kbps        2.0 / 48 kHz / 192 kbps
DTS-HD Master Audio             Russian         2285 kbps       5.1 / 48 kHz / 2285 kbps / 16-bit (DTS Core: 5.1 / 48 kHz / 1509 kbps / 16-bit)
DTS-HD Master Audio             Russian         2288 kbps       5.1 / 48 kHz / 2288 kbps / 16-bit (DTS Core: 5.1 / 48 kHz / 1509 kbps / 16-bit)
Dolby Digital Audio             Russian         192 kbps        2.0 / 48 kHz / 192 kbps
Dolby Digital Audio             Russian         192 kbps        2.0 / 48 kHz / 192 kbps
Dolby Digital Audio             Russian         192 kbps        2.0 / 48 kHz / 192 kbps
DTS-HD Master Audio             English         2703 kbps       5.1 / 48 kHz / 2703 kbps / 24-bit (DTS Core: 5.1 / 48 kHz / 1509 kbps / 24-bit)
Dolby Digital Audio             English         224 kbps        2.0 / 48 kHz / 224 kbps / DN -4dB

SUBTITLES:

Codec                           Language        Bitrate         Description     
-----                           --------        -------         -----------     
Presentation Graphics           Russian         24,613 kbps                     
Presentation Graphics           Russian         28,724 kbps                     
Presentation Graphics           Russian         25,959 kbps                     
Presentation Graphics           Russian         0,254 kbps                     
Presentation Graphics           Ukrainian       25,255 kbps                     
Presentation Graphics           English         74,015 kbps                     

FILES:

Name            Time In         Length          Size            Total Bitrate   
----            -------         ------          ----            -------------   
00000.M2TS      0:00:00.000     2:08:31.744     45 290 072 064  46 983         

CHAPTERS:

Number          Time In         Length          Avg Video Rate  Max 1-Sec Rate  Max 1-Sec Time  Max 5-Sec Rate  Max 5-Sec Time  Max 10Sec Rate  Max 10Sec Time  Avg Frame Size  Max Frame Size  Max Frame Time 
------          -------         ------          --------------  --------------  --------------  --------------  --------------  --------------  --------------  --------------  --------------  -------------- 
1               0:00:00.000     0:00:53.845     28 480 kbps     45 486 kbps     00:00:45.086    40 194 kbps     00:00:46.504    35 482 kbps     00:00:01.000    148 367 bytes   607 384 bytes   00:00:45.128   
2               0:00:53.845     0:01:00.144     33 208 kbps     44 828 kbps     00:01:38.139    39 020 kbps     00:01:38.181    37 476 kbps     00:01:23.041    173 015 bytes   493 121 bytes   00:01:25.418   
3               0:01:53.989     0:01:56.991     35 976 kbps     44 792 kbps     00:03:40.762    39 424 kbps     00:03:36.758    38 350 kbps     00:03:31.711    187 560 bytes   423 160 bytes   00:01:59.911   
4               0:03:50.981     0:04:07.163     29 986 kbps     42 639 kbps     00:05:44.177    36 922 kbps     00:05:40.423    34 805 kbps     00:06:40.608    156 357 bytes   506 180 bytes   00:07:49.385   
5               0:07:58.144     0:01:11.321     27 070 kbps     36 279 kbps     00:07:58.853    33 739 kbps     00:07:58.394    33 482 kbps     00:07:58.686    141 052 bytes   458 450 bytes   00:08:08.696   
6               0:09:09.465     0:04:28.685     35 338 kbps     51 409 kbps     00:11:34.110    42 365 kbps     00:11:43.452    40 674 kbps     00:12:23.242    184 238 bytes   447 277 bytes   00:09:18.140   
7               0:13:38.151     0:03:15.444     33 599 kbps     44 296 kbps     00:15:38.520    37 752 kbps     00:15:47.780    35 804 kbps     00:15:58.957    175 170 bytes   434 786 bytes   00:16:31.198   
8               0:16:53.596     0:06:01.778     29 008 kbps     45 541 kbps     00:22:20.839    37 521 kbps     00:22:17.377    34 806 kbps     00:22:12.414    151 235 bytes   533 262 bytes   00:22:55.373   
9               0:22:55.374     0:04:37.151     27 156 kbps     45 971 kbps     00:26:14.572    39 140 kbps     00:26:14.572    36 759 kbps     00:26:44.519    141 577 bytes   550 818 bytes   00:23:00.295   
10              0:27:32.525     0:05:06.972     30 170 kbps     39 675 kbps     00:28:41.010    35 958 kbps     00:29:46.910    33 390 kbps     00:29:46.910    157 314 bytes   461 355 bytes   00:27:38.239   
11              0:32:39.498     0:04:52.084     28 655 kbps     47 003 kbps     00:34:18.306    40 274 kbps     00:34:15.011    38 679 kbps     00:34:18.055    149 374 bytes   410 354 bytes   00:36:09.625   
12              0:37:31.583     0:02:46.665     29 346 kbps     48 159 kbps     00:38:02.947    40 250 kbps     00:38:02.947    37 997 kbps     00:38:02.405    153 032 bytes   432 921 bytes   00:38:02.989   
13              0:40:18.248     0:03:20.784     27 131 kbps     38 815 kbps     00:42:01.810    34 078 kbps     00:40:18.249    30 637 kbps     00:40:18.249    141 449 bytes   395 040 bytes   00:43:04.039   
14              0:43:39.033     0:05:09.267     28 804 kbps     42 649 kbps     00:47:28.887    39 289 kbps     00:47:44.403    36 677 kbps     00:47:39.356    150 172 bytes   441 648 bytes   00:46:59.733   
15              0:48:48.300     0:03:16.029     29 958 kbps     47 790 kbps     00:49:37.849    38 401 kbps     00:50:52.966    36 786 kbps     00:51:08.106    156 156 bytes   434 266 bytes   00:51:11.651   
16              0:52:04.330     0:00:34.409     33 740 kbps     38 590 kbps     00:52:20.637    36 587 kbps     00:52:16.925    36 137 kbps     00:52:11.920    175 902 bytes   386 783 bytes   00:52:38.154   
17              0:52:38.739     0:03:31.085     26 859 kbps     42 604 kbps     00:54:30.225    35 204 kbps     00:54:18.463    31 633 kbps     00:54:15.085    140 032 bytes   387 029 bytes   00:55:47.218   
18              0:56:09.825     0:02:29.106     30 878 kbps     44 627 kbps     00:56:18.208    39 238 kbps     00:56:09.866    36 742 kbps     00:56:10.408    161 029 bytes   422 579 bytes   00:58:10.111   
19              0:58:38.932     0:04:18.216     26 570 kbps     42 958 kbps     01:02:17.275    38 858 kbps     01:02:14.564    35 611 kbps     01:02:09.600    138 526 bytes   486 920 bytes   01:01:49.914   
20              1:02:57.148     0:01:46.481     31 837 kbps     42 021 kbps     01:04:42.044    38 463 kbps     01:04:14.725    37 708 kbps     01:04:14.517    165 918 bytes   522 647 bytes   01:04:19.021   
21              1:04:43.630     0:03:01.180     32 552 kbps     41 490 kbps     01:07:06.814    39 012 kbps     01:07:04.019    36 964 kbps     01:06:49.422    169 709 bytes   438 415 bytes   01:06:06.796   
22              1:07:44.811     0:03:51.564     30 977 kbps     47 312 kbps     01:09:39.341    40 743 kbps     01:09:37.590    39 170 kbps     01:09:32.585    161 528 bytes   408 431 bytes   01:10:11.665   
23              1:11:36.375     0:05:28.744     28 465 kbps     38 259 kbps     01:12:07.281    33 852 kbps     01:13:30.239    32 423 kbps     01:13:29.738    148 403 bytes   399 049 bytes   01:16:29.835   
24              1:17:05.120     0:03:12.525     29 572 kbps     40 371 kbps     01:18:18.235    37 365 kbps     01:20:09.721    35 772 kbps     01:20:07.636    154 175 bytes   425 698 bytes   01:20:10.514   
25              1:20:17.646     0:00:59.851     32 174 kbps     45 229 kbps     01:20:58.228    39 805 kbps     01:20:58.061    36 045 kbps     01:20:58.061    167 627 bytes   569 993 bytes   01:21:00.146   
26              1:21:17.497     0:03:25.163     29 750 kbps     47 155 kbps     01:23:21.413    37 455 kbps     01:23:45.520    36 273 kbps     01:23:55.738    155 103 bytes   385 247 bytes   01:24:42.660   
27              1:24:42.661     0:03:00.639     29 267 kbps     49 563 kbps     01:26:02.866    38 682 kbps     01:26:27.932    37 721 kbps     01:27:27.200    152 583 bytes   474 550 bytes   01:27:13.019   
28              1:27:43.300     0:00:37.369     26 651 kbps     37 896 kbps     01:27:54.227    36 328 kbps     01:27:52.684    34 354 kbps     01:27:50.431    139 099 bytes   394 451 bytes   01:27:55.228   
29              1:28:20.670     0:03:27.041     32 939 kbps     44 122 kbps     01:29:25.234    37 346 kbps     01:29:39.540    35 805 kbps     01:29:34.494    171 697 bytes   456 765 bytes   01:31:43.331   
30              1:31:47.711     0:00:47.796     32 683 kbps     38 639 kbps     01:31:47.752    36 433 kbps     01:31:47.877    35 261 kbps     01:32:24.956    170 541 bytes   422 475 bytes   01:32:34.590   
31              1:32:35.508     0:01:43.354     31 948 kbps     44 733 kbps     01:33:56.964    36 676 kbps     01:34:02.845    35 672 kbps     01:33:57.006    166 497 bytes   438 308 bytes   01:32:51.691   
32              1:34:18.862     0:05:05.555     26 913 kbps     37 453 kbps     01:35:08.577    33 992 kbps     01:35:13.374    32 509 kbps     01:34:45.513    140 313 bytes   399 639 bytes   01:34:47.556   
33              1:39:24.417     0:01:20.830     29 511 kbps     40 386 kbps     01:39:48.524    35 292 kbps     01:40:04.331    33 645 kbps     01:40:04.039    153 856 bytes   380 603 bytes   01:40:13.882   
34              1:40:45.247     0:03:07.687     25 944 kbps     35 602 kbps     01:40:45.289    31 821 kbps     01:40:45.289    30 742 kbps     01:41:58.695    135 260 bytes   358 019 bytes   01:43:19.735   
35              1:43:52.935     0:04:00.614     27 432 kbps     41 336 kbps     01:45:53.138    35 745 kbps     01:47:34.155    33 412 kbps     01:47:25.730    143 043 bytes   404 115 bytes   01:45:29.698   
36              1:47:53.550     0:05:09.976     28 520 kbps     48 040 kbps     01:51:41.736    38 468 kbps     01:52:05.218    36 055 kbps     01:50:29.164    148 672 bytes   429 851 bytes   01:50:36.713   
37              1:53:03.527     0:02:55.925     33 597 kbps     44 181 kbps     01:54:04.879    37 146 kbps     01:54:09.634    36 009 kbps     01:53:10.575    175 200 bytes   457 404 bytes   01:55:04.522   
38              1:55:59.452     0:03:27.750     30 769 kbps     46 272 kbps     01:57:47.852    40 505 kbps     01:57:47.518    37 021 kbps     01:57:47.477    160 381 bytes   445 066 bytes   01:56:22.392   
39              1:59:27.202     0:01:00.100     30 289 kbps     49 537 kbps     02:00:21.255    40 280 kbps     02:00:18.336    35 564 kbps     02:00:14.206    158 018 bytes   641 480 bytes   02:00:07.825   
40              2:00:27.303     0:08:04.441     8 708 kbps      36 967 kbps     02:00:43.819    32 331 kbps     02:00:31.599    31 107 kbps     02:00:42.902    45 406 bytes    350 534 bytes   02:00:36.437   

STREAM DIAGNOSTICS:

File            PID             Type            Codec           Language                Seconds                 Bitrate                 Bytes           Packets         
----            ---             ----            -----           --------                --------------          --------------          -------------   -----           
00000.M2TS      4113 (0x1011)   0x1B            AVC                                     7711,579                28 396                  27 372 364 574  148 870 402     
00000.M2TS      4352 (0x1100)   0x82            DTS             rus (Russian)           7711,579                755                     727 310 838     4 337 838       
00000.M2TS      4353 (0x1101)   0x81            AC3             ukr (Ukrainian)         7711,579                448                     431 859 456     2 409 930       
00000.M2TS      4354 (0x1102)   0x81            AC3             rus (Russian)           7711,579                448                     431 850 496     2 409 880       
00000.M2TS      4355 (0x1103)   0x86            DTS-HD MA       rus (Russian)           7711,579                2 300                   2 216 926 080   13 256 131     
00000.M2TS      4356 (0x1104)   0x86            DTS-HD MA       rus (Russian)           7711,579                2 301                   2 217 757 640   13 260 285     
00000.M2TS      4357 (0x1105)   0x81            AC3             rus (Russian)           7711,579                448                     431 839 744     2 409 820       
00000.M2TS      4358 (0x1106)   0x81            AC3             ukr (Ukrainian)         7711,579                192                     184 992 000     1 204 375       
00000.M2TS      4359 (0x1107)   0x86            DTS-HD MA       rus (Russian)           7711,579                2 285                   2 202 487 604   13 173 504     
00000.M2TS      4360 (0x1108)   0x86            DTS-HD MA       rus (Russian)           7711,579                2 288                   2 205 167 628   13 189 137     
00000.M2TS      4361 (0x1109)   0x81            AC3             rus (Russian)           7711,579                192                     184 993 536     1 204 385       
00000.M2TS      4362 (0x110A)   0x81            AC3             rus (Russian)           7711,579                192                     184 994 304     1 204 390       
00000.M2TS      4363 (0x110B)   0x81            AC3             rus (Russian)           7711,579                192                     185 071 104     1 204 890       
00000.M2TS      4364 (0x110C)   0x86            DTS-HD MA       eng (English)           7711,579                2 703                   2 605 749 496   15 362 488     
00000.M2TS      4365 (0x110D)   0x81            AC3             eng (English)           7711,579                224                     215 928 832     1 204 960       
00000.M2TS      4608 (0x1200)   0x90            PGS             rus (Russian)           7711,579                25                      23 726 441      138 069         
00000.M2TS      4609 (0x1201)   0x90            PGS             rus (Russian)           7711,579                29                      27 689 288      166 388         
00000.M2TS      4610 (0x1202)   0x90            PGS             rus (Russian)           7711,579                26                      25 023 065      146 123         
00000.M2TS      4611 (0x1203)   0x90            PGS             rus (Russian)           7711,579                0                       245 315         1 433           
00000.M2TS      4612 (0x1204)   0x90            PGS             ukr (Ukrainian)         7711,579                25                      24 344 567      141 417         
00000.M2TS      4613 (0x1205)   0x90            PGS             eng (English)           7711,579                74                      71 347 807      400 563         




Крепкий орешек 4.0 / Live Free or Die Hard

Год выпуска: 2007
Страна: США, Великобритания / 20th Century Fox Film Corporation, Cheyenne Enterprises, Dune Entertainment, Ingenious Film Partners, Wintergreen Productions
Жанр: Боевик, Криминал, Триллер
Продолжительность: 02:08:52
Перевод: Профессиональный (полное дублирование)
Язык субтитров: Русский (Blu-ray CEE), Украинский (Blu-ray CEE), Английский
Режиссер:
  • Лен Уайзман

В ролях:
  • Брюс Уиллис, Джастин Лонг, Тимоти Олифант, Мэгги Кью, Клифф Кёртис, Джонатан Садовский, Мэри Элизабет Уинстэд, Кевин Смит, Эндрю Фридман, Сирил Раффаэлли

Описание: Мир опять на краю гибели из-за новой террористической угрозы. В этот раз в «заложниках» оказывается всемирная компьютерная сеть. Правительство и спецслужбы бессильны, все готово погрузиться в хаос. Но на борьбу с нависшей над миром опасностью выходит наш старый герой Джон МакКлейн со своей неразлучной подругой «Береттой».
Он давно в отставке, но когда на карту поставлена жизнь членов его семьи, он не будет стоять в стороне и бросит вызов террористам. Однако в этот раз ему уже не справиться без молодого, но очень талантливого помощника.

РАЗДАЧА ОТ:
Качество: Blu-Ray Remux
Формат: BDMV
Видео кодек: MPEG-4 AVC
Аудио кодек: DTS HD/MA, DTS, AC3
Видео: 1920x1080, ~25987 Кбит/сек, 23,976 кадра/сек
Аудио #1: DTS, 768 Кбит/сек, 6 каналов, 48,0 КГц, 24 бит (Русский - Дублированный ''Blu-ray CEE'')
Аудио #2: AC3, 448 Кбит/сек, 6 каналов, 48,0 КГц, 16 бит (Украинский - Дублированный ''Blu-ray CEE'')
Аудио #3: DTS, 768 Кбит/сек, 6 каналов, 48,0 КГц, 24 бит (Русский - Многоголосый ''Киномания'')
Аудио #4: DTS HD/MA, 4132 Кбит/сек, 6 каналов, 16 бит (Русский - Авторский ''А. Гаврилов'')
Аудио #5: DTS HD/MA, 4133 Кбит/сек, 6 каналов, 16 бит (Русский - Авторский ''Ю. Живов'')
Аудио #6: DTS HD/MA, 4092 Кбит/сек, 6 каналов, 24 бит (Английский - Оригинал)
Аудио #7: AC3, 448 Кбит/сек, 6 каналов, 48,0 КГц, 16 бит (Английский - Оригинал ''Ненормативная лексика'')
Аудио #8: AC3, 192 Кбит/сек, 2 канала, 48,0 КГц, 16 бит (Английский - Оригинал ''Комментарии - Bruce Willis, Len Wiseman, Nicholas De Toth'')

Disc Title: DIE_HARD_4_HDCLUB
Disc Size: 42 296 539 124 bytes
Protection: AACS
BD-Java: No
BDInfo: 0.5.8

Notes:

BDINFO HOME:
Cinema Squid
http://www.cinemasquid.com/blu-ray/tools/bdinfo

INCLUDES FORUMS REPORT FOR:
AVS Forum Blu-ray Audio and Video Specifications Thread
http://www.avsforum.com/avs-vb/showthread.php?t=1155731

********************
PLAYLIST: 00000.MPLS
********************

Код:

                                                                                                                Total   Video                                             
Title                                                           Codec   Length  Movie Size      Disc Size       Bitrate Bitrate Main Audio Track                          Secondary Audio Track
-----                                                           ------  ------- --------------  --------------  ------- ------- ------------------                        ---------------------
00000.MPLS                                                      AVC     2:08:52 42 296 420 352  42 296 539 124  43,76   25,99   DTS 5.1 768Kbps (48kHz/24-bit)            DTS 5.1 768Kbps (48kHz/24-bit)


Код:



DISC INFO:

Disc Title:     DIE_HARD_4_HDCLUB
Disc Size:      42 296 539 124 bytes
Protection:     AACS
BD-Java:        No
BDInfo:         0.5.8

PLAYLIST REPORT:

Name:                   00000.MPLS
Length:                 2:08:52.191 (h:m:s.ms)
Size:                   42 296 420 352 bytes
Total Bitrate:          43,76 Mbps

VIDEO:

Codec                   Bitrate             Description     
-----                   -------             -----------     
MPEG-4 AVC Video        25987 kbps          1080p / 23,976 fps / 16:9 / High Profile 4.1

AUDIO:

Codec                           Language        Bitrate         Description     
-----                           --------        -------         -----------     
DTS Audio                       Russian         768 kbps        5.1 / 48 kHz / 768 kbps / 24-bit
Dolby Digital Audio             Ukrainian       448 kbps        5.1 / 48 kHz / 448 kbps / DN -4dB
DTS Audio                       Russian         768 kbps        5.1 / 48 kHz / 768 kbps / 24-bit
DTS-HD Master Audio             Russian         4132 kbps       5.1 / 48 kHz / 4132 kbps / 24-bit (DTS Core: 5.1 / 48 kHz / 1509 kbps / 24-bit)
DTS-HD Master Audio             Russian         4133 kbps       5.1 / 48 kHz / 4133 kbps / 24-bit (DTS Core: 5.1 / 48 kHz / 1509 kbps / 24-bit)
DTS-HD Master Audio             English         4092 kbps       5.1 / 48 kHz / 4092 kbps / 24-bit (DTS Core: 5.1 / 48 kHz / 1509 kbps / 24-bit)
Dolby Digital Audio             English         448 kbps        5.1 / 48 kHz / 448 kbps / DN -4dB
Dolby Digital Audio             English         192 kbps        2.0 / 48 kHz / 192 kbps

SUBTITLES:

Codec                           Language        Bitrate         Description     
-----                           --------        -------         -----------     
Presentation Graphics           Russian         28,814 kbps                     
Presentation Graphics           Ukrainian       30,039 kbps                     
Presentation Graphics           English         32,379 kbps                     

FILES:

Name            Time In         Length          Size            Total Bitrate   
----            -------         ------          ----            -------------   
00000.M2TS      0:00:00.000     2:08:52.191     42 296 420 352  43 818         

CHAPTERS:

Number          Time In         Length          Avg Video Rate  Max 1-Sec Rate  Max 1-Sec Time  Max 5-Sec Rate  Max 5-Sec Time  Max 10Sec Rate  Max 10Sec Time  Avg Frame Size  Max Frame Size  Max Frame Time 
------          -------         ------          --------------  --------------  --------------  --------------  --------------  --------------  --------------  --------------  --------------  -------------- 
1               0:00:00.000     0:03:53.150     24 249 kbps     41 850 kbps     00:00:21.229    35 425 kbps     00:00:17.225    34 622 kbps     00:00:12.220    126 376 bytes   569 511 bytes   00:02:15.802   
2               0:03:53.150     0:02:25.394     29 172 kbps     34 634 kbps     00:04:31.771    33 083 kbps     00:06:10.912    32 889 kbps     00:06:05.573    152 087 bytes   324 243 bytes   00:03:56.152   
3               0:06:18.544     0:01:30.590     24 929 kbps     29 870 kbps     00:06:36.854    28 259 kbps     00:06:35.144    27 660 kbps     00:06:35.144    130 027 bytes   261 652 bytes   00:06:38.815   
4               0:07:49.135     0:03:42.388     24 991 kbps     34 776 kbps     00:09:23.229    33 091 kbps     00:09:21.477    32 176 kbps     00:09:21.477    130 290 bytes   369 194 bytes   00:08:36.933   
5               0:11:31.523     0:03:44.558     26 586 kbps     34 537 kbps     00:14:59.940    32 176 kbps     00:14:58.230    30 795 kbps     00:13:26.305    138 584 bytes   300 118 bytes   00:12:10.020   
6               0:15:16.082     0:02:41.410     26 886 kbps     36 178 kbps     00:15:35.517    31 720 kbps     00:16:33.826    30 116 kbps     00:17:05.357    140 209 bytes   263 323 bytes   00:17:27.129   
7               0:17:57.493     0:02:50.003     24 605 kbps     33 912 kbps     00:20:21.803    30 943 kbps     00:18:58.637    29 524 kbps     00:18:53.882    128 280 bytes   303 016 bytes   00:20:14.630   
8               0:20:47.496     0:05:08.391     26 668 kbps     34 348 kbps     00:23:50.387    33 938 kbps     00:23:50.387    32 302 kbps     00:23:50.137    139 015 bytes   345 075 bytes   00:24:13.201   
9               0:25:55.888     0:01:34.219     25 879 kbps     34 605 kbps     00:26:23.290    32 035 kbps     00:26:19.369    31 204 kbps     00:26:15.865    134 923 bytes   334 934 bytes   00:26:36.469   
10              0:27:30.107     0:02:32.777     27 723 kbps     35 046 kbps     00:27:48.750    34 039 kbps     00:27:44.746    32 131 kbps     00:27:40.408    144 575 bytes   331 462 bytes   00:27:49.626   
11              0:30:02.884     0:01:24.835     24 803 kbps     34 545 kbps     00:31:12.870    30 307 kbps     00:31:12.745    28 615 kbps     00:30:09.933    129 309 bytes   296 376 bytes   00:30:34.666   
12              0:31:27.719     0:02:19.347     28 842 kbps     34 491 kbps     00:32:32.033    33 074 kbps     00:32:36.537    32 771 kbps     00:32:38.289    150 325 bytes   305 912 bytes   00:33:47.066   
13              0:33:47.067     0:04:29.226     23 978 kbps     36 945 kbps     00:35:24.330    33 244 kbps     00:35:20.993    30 418 kbps     00:35:20.993    125 008 bytes   360 298 bytes   00:37:26.410   
14              0:38:16.294     0:02:47.959     27 543 kbps     35 362 kbps     00:40:20.501    32 010 kbps     00:39:14.935    31 147 kbps     00:39:12.808    143 632 bytes   332 308 bytes   00:38:55.916   
15              0:41:04.253     0:04:38.611     25 129 kbps     34 708 kbps     00:44:17.154    30 585 kbps     00:43:51.086    29 348 kbps     00:44:36.632    131 013 bytes   295 915 bytes   00:41:26.275   
16              0:45:42.864     0:06:33.268     26 037 kbps     34 731 kbps     00:48:13.515    32 907 kbps     00:51:52.484    31 746 kbps     00:51:45.811    135 731 bytes   360 486 bytes   00:50:10.841   
17              0:52:16.133     0:03:10.440     26 731 kbps     34 917 kbps     00:55:10.640    32 608 kbps     00:55:09.597    32 159 kbps     00:55:04.551    139 393 bytes   312 474 bytes   00:54:28.098   
18              0:55:26.573     0:02:35.739     25 055 kbps     34 544 kbps     00:55:27.782    30 290 kbps     00:55:26.573    28 021 kbps     00:55:26.573    130 624 bytes   277 676 bytes   00:55:27.574   
19              0:58:02.312     0:02:44.748     24 653 kbps     34 356 kbps     01:00:20.825    32 588 kbps     01:00:16.821    31 345 kbps     00:58:32.050    128 532 bytes   319 431 bytes   01:00:18.489   
20              1:00:47.060     0:01:42.810     22 087 kbps     30 728 kbps     01:02:18.359    29 235 kbps     01:02:17.233    28 385 kbps     01:02:15.356    115 151 bytes   361 522 bytes   01:02:15.523   
21              1:02:29.871     0:05:45.636     27 711 kbps     35 270 kbps     01:06:07.880    33 833 kbps     01:04:23.776    33 553 kbps     01:03:27.470    144 470 bytes   395 417 bytes   01:05:58.204   
22              1:08:15.508     0:04:15.756     24 683 kbps     38 124 kbps     01:09:32.042    33 020 kbps     01:12:15.914    31 362 kbps     01:09:26.412    128 666 bytes   329 489 bytes   01:12:15.581   
23              1:12:31.264     0:04:29.935     27 247 kbps     36 787 kbps     01:15:49.419    31 927 kbps     01:15:48.085    31 215 kbps     01:15:47.960    142 052 bytes   332 254 bytes   01:15:48.001   
24              1:17:01.200     0:01:26.962     22 443 kbps     33 256 kbps     01:17:24.639    29 706 kbps     01:17:20.761    28 659 kbps     01:17:20.302    117 009 bytes   321 797 bytes   01:18:24.950   
25              1:18:28.162     0:03:01.889     25 185 kbps     33 689 kbps     01:19:00.318    32 152 kbps     01:18:56.398    30 013 kbps     01:19:08.785    131 303 bytes   347 232 bytes   01:20:41.378   
26              1:21:30.052     0:04:22.012     27 702 kbps     35 290 kbps     01:22:30.153    33 910 kbps     01:22:40.789    33 020 kbps     01:22:34.115    144 447 bytes   380 542 bytes   01:25:15.568   
27              1:25:52.064     0:06:53.036     25 960 kbps     29 038 kbps     01:26:32.562    26 718 kbps     01:26:32.562    26 290 kbps     01:26:32.562    135 359 bytes   290 937 bytes   01:27:37.669   
28              1:32:45.100     0:04:04.912     26 732 kbps     34 818 kbps     01:36:47.426    33 081 kbps     01:36:44.340    31 007 kbps     01:36:40.044    139 346 bytes   389 853 bytes   01:33:15.673   
29              1:36:50.013     0:02:57.510     25 758 kbps     34 606 kbps     01:36:51.388    32 945 kbps     01:37:15.079    32 180 kbps     01:37:09.949    134 321 bytes   287 448 bytes   01:38:03.502   
30              1:39:47.523     0:05:14.730     25 434 kbps     35 063 kbps     01:41:18.197    32 541 kbps     01:42:13.794    31 312 kbps     01:42:13.460    132 599 bytes   389 671 bytes   01:41:19.114   
31              1:45:02.254     0:01:20.204     32 310 kbps     35 701 kbps     01:45:37.330    34 024 kbps     01:45:34.286    33 472 kbps     01:45:34.161    168 448 bytes   334 338 bytes   01:46:12.491   
32              1:46:22.459     0:04:58.715     24 643 kbps     35 398 kbps     01:47:57.637    32 404 kbps     01:47:07.963    30 869 kbps     01:47:56.845    128 479 bytes   299 925 bytes   01:48:03.059   
33              1:51:21.174     0:05:17.525     26 428 kbps     35 635 kbps     01:55:58.659    33 955 kbps     01:56:16.636    32 853 kbps     01:56:14.634    137 766 bytes   342 758 bytes   01:56:29.148   
34              1:56:38.700     0:01:33.844     24 840 kbps     32 531 kbps     01:57:11.315    31 350 kbps     01:57:01.180    30 876 kbps     01:56:57.802    129 504 bytes   265 958 bytes   01:58:10.166   
35              1:58:12.544     0:03:33.421     25 551 kbps     34 404 kbps     02:00:57.958    32 070 kbps     02:01:18.896    30 682 kbps     02:01:16.894    133 237 bytes   288 315 bytes   02:01:40.209   
36              2:01:45.965     0:07:06.226     25 319 kbps     34 850 kbps     02:04:42.725    34 104 kbps     02:04:42.766    33 803 kbps     02:03:53.259    135 194 bytes   522 987 bytes   02:04:48.314   

STREAM DIAGNOSTICS:

File            PID             Type            Codec           Language                Seconds                 Bitrate                 Bytes           Packets         
----            ---             ----            -----           --------                --------------          --------------          -------------   -----           
00000.M2TS      4113 (0x1011)   0x1B            AVC                                     7722,006                25 988                  25 084 460 013  136 436 573     
00000.M2TS      4352 (0x1100)   0x82            DTS             rus (Russian)           7722,006                768                     741 328 896     4 343 724       
00000.M2TS      4353 (0x1101)   0x81            AC3             ukr (Ukrainian)         7722,006                448                     432 441 856     2 413 180       
00000.M2TS      4354 (0x1102)   0x82            DTS             rus (Russian)           7722,006                768                     741 550 080     4 345 035       
00000.M2TS      4355 (0x1103)   0x86            DTS-HD MA       rus (Russian)           7722,006                4 132                   3 988 480 424   22 882 312     
00000.M2TS      4356 (0x1104)   0x86            DTS-HD MA       rus (Russian)           7722,006                4 133                   3 989 547 016   22 887 236     
00000.M2TS      4357 (0x1105)   0x86            DTS-HD MA       eng (English)           7722,006                4 092                   3 949 982 176   22 672 067     
00000.M2TS      4358 (0x1106)   0x81            AC3             eng (English)           7722,006                448                     432 441 856     2 413 180       
00000.M2TS      4359 (0x1107)   0x81            AC3             eng (English)           7722,006                192                     185 388 288     1 206 955       
00000.M2TS      4608 (0x1200)   0x90            PGS             rus (Russian)           7722,006                29                      27 813 573      159 502         
00000.M2TS      4609 (0x1201)   0x90            PGS             ukr (Ukrainian)         7722,006                30                      28 996 203      165 940         
00000.M2TS      4610 (0x1202)   0x90            PGS             eng (English)           7722,006                32                      31 254 958      178 349         




Крепкий орешек: Хороший день, чтобы умереть / A Good Day to Die Hard

Год выпуска: 2013
Страна: США
Жанр: боевик, триллер, криминал
Продолжительность: 01:37:39
Перевод: Профессиональный (полное дублирование)
Язык субтитров: Русский, украинский, английский, французский, испанский
Режиссер:
  • Джон Мур

В ролях:
  • Брюс Уиллис, Джай Кортни, Себастьян Кох, Юлия Снигирь, Радивойе Буквич, Сергей Колесников, Мэри Элизабет Уинстэд, Коул Хаузер, Амори Ноласко, Роман Лукнар

Описание: Джон МакКлейн прибывает в Москву, чтобы вызволить из тюрьмы своего непредсказуемого сына, но холодная голова и железные мускулы вязнут в паутине российской действительности. Дело, в которое влип МакКлейн-младший, оказывается настолько «опасной трясиной», что отцу и сыну, чтобы выжить и в очередной раз спасти мир, приходится объединить свои усилия, забыв прежние, казалось бы, непреодолимые разногласия.

РАЗДАЧА ОТ:
Качество: Blu-Ray Remux
Формат: BDMV
Видео кодек: MPEG-4 AVC
Аудио кодек: DTS-HD MA, AC3
Видео: 1920x1080 at 23.976 fps, ~22905 kbps avg
Aудио#1: Russian: 48 kHz, AC3, 3/2 (L,C,R,l,r) + LFE ch, ~384.00 kbps avg |Дубляж, iTunes Russia|
Aудио#2: Ukrainian: 48 kHz, AC3, 2/0 (L,R) ch, ~192.00 kbps avg |Дубляж, iTunes Russia|
Аудио#3: English: 48 kHz, AC3, 3/2 (L,C,R,l,r) + LFE ch, ~448.00 kbps avg |Descriptive|
Aудио#4: English: 48 kHz/24-bit, DTS-HD MA 7.1, ~5744.00 kbps avg

Disc Title: DIE_HARD_5_HDCLUB
Disc Size: 23 067 789 216 bytes
Protection: AACS
BD-Java: No
BDInfo: 0.5.8

Notes:

BDINFO HOME:
Cinema Squid
http://www.cinemasquid.com/blu-ray/tools/bdinfo

INCLUDES FORUMS REPORT FOR:
AVS Forum Blu-ray Audio and Video Specifications Thread
http://www.avsforum.com/avs-vb/showthread.php?t=1155731

********************
PLAYLIST: 00000.MPLS
********************

Код:

                                                                                                                Total   Video                                             
Title                                                           Codec   Length  Movie Size      Disc Size       Bitrate Bitrate Main Audio Track                          Secondary Audio Track
-----                                                           ------  ------- --------------  --------------  ------- ------- ------------------                        ---------------------
00000.MPLS                                                      AVC     1:37:39 23 067 703 296  23 067 789 216  31,49   22,90   DD AC3 5.1 384Kbps                       


Код:



DISC INFO:

Disc Title:     DIE_HARD_5_HDCLUB
Disc Size:      23 067 789 216 bytes
Protection:     AACS
BD-Java:        No
BDInfo:         0.5.8

PLAYLIST REPORT:

Name:                   00000.MPLS
Length:                 1:37:39.456 (h:m:s.ms)
Size:                   23 067 703 296 bytes
Total Bitrate:          31,49 Mbps

VIDEO:

Codec                   Bitrate             Description     
-----                   -------             -----------     
MPEG-4 AVC Video        22905 kbps          1080p / 23,976 fps / 16:9 / High Profile 4.1

AUDIO:

Codec                           Language        Bitrate         Description     
-----                           --------        -------         -----------     
Dolby Digital Audio             Russian         384 kbps        5.1 / 48 kHz / 384 kbps
Dolby Digital Audio             Ukrainian       192 kbps        2.0 / 48 kHz / 192 kbps / DN -4dB
DTS-HD Master Audio             English         5744 kbps       7.1 / 48 kHz / 5744 kbps / 24-bit (DTS Core: 5.1-ES / 48 kHz / 1509 kbps / 24-bit)
Dolby Digital Audio             English         448 kbps        5.1 / 48 kHz / 448 kbps

SUBTITLES:

Codec                           Language        Bitrate         Description     
-----                           --------        -------         -----------     
Presentation Graphics           Russian         12,608 kbps                     
Presentation Graphics           Ukrainian       17,142 kbps                     
Presentation Graphics           English         24,617 kbps                     
Presentation Graphics           Spanish         19,018 kbps                     
Presentation Graphics           French          1,883 kbps                     
Presentation Graphics           English         57,640 kbps                     
Presentation Graphics           English         1,703 kbps                     

FILES:

Name            Time In         Length          Size            Total Bitrate   
----            -------         ------          ----            -------------   
00000.M2TS      0:00:00.000     1:37:39.456     23 067 703 296  31 497         

CHAPTERS:

Number          Time In         Length          Avg Video Rate  Max 1-Sec Rate  Max 1-Sec Time  Max 5-Sec Rate  Max 5-Sec Time  Max 10Sec Rate  Max 10Sec Time  Avg Frame Size  Max Frame Size  Max Frame Time 
------          -------         ------          --------------  --------------  --------------  --------------  --------------  --------------  --------------  --------------  --------------  -------------- 
1               0:00:00.000     0:02:45.999     24 854 kbps     34 949 kbps     00:01:17.202    33 786 kbps     00:02:16.261    33 755 kbps     00:02:11.256    129 544 bytes   270 593 bytes   00:01:09.694   
2               0:02:45.999     0:02:16.135     23 038 kbps     46 240 kbps     00:04:55.420    33 740 kbps     00:02:46.374    33 644 kbps     00:02:46.124    120 107 bytes   598 869 bytes   00:04:56.379   
3               0:05:02.135     0:04:46.661     23 289 kbps     34 747 kbps     00:05:08.266    33 869 kbps     00:05:12.228    33 761 kbps     00:05:08.224    121 419 bytes   288 759 bytes   00:09:48.796   
4               0:09:48.796     0:02:37.657     23 016 kbps     33 791 kbps     00:12:20.281    29 030 kbps     00:09:48.796    27 573 kbps     00:09:48.796    119 998 bytes   286 733 bytes   00:09:51.632   
5               0:12:26.453     0:03:12.775     23 892 kbps     34 243 kbps     00:14:32.705    33 138 kbps     00:13:53.165    31 209 kbps     00:14:25.197    124 560 bytes   255 216 bytes   00:14:25.239   
6               0:15:39.229     0:02:37.449     21 729 kbps     34 247 kbps     00:16:45.421    33 436 kbps     00:15:39.229    30 047 kbps     00:16:37.621    113 286 bytes   207 168 bytes   00:15:41.231   
7               0:18:16.678     0:03:23.828     22 963 kbps     34 214 kbps     00:20:35.484    32 229 kbps     00:18:56.510    28 771 kbps     00:18:56.510    119 720 bytes   317 267 bytes   00:21:34.001   
8               0:21:40.507     0:05:15.273     23 083 kbps     35 746 kbps     00:24:51.364    30 655 kbps     00:24:45.066    28 534 kbps     00:24:42.355    120 346 bytes   265 607 bytes   00:24:52.115   
9               0:26:55.780     0:03:59.280     23 037 kbps     36 278 kbps     00:29:59.923    31 971 kbps     00:29:57.545    31 793 kbps     00:29:52.207    120 105 bytes   244 811 bytes   00:29:20.508   
10              0:30:55.061     0:03:37.049     23 140 kbps     34 236 kbps     00:30:56.229    30 534 kbps     00:30:55.061    28 687 kbps     00:30:55.061    120 643 bytes   236 736 bytes   00:30:56.980   
11              0:34:32.111     0:03:47.728     22 819 kbps     34 921 kbps     00:37:39.382    32 325 kbps     00:35:48.604    31 825 kbps     00:35:48.604    118 971 bytes   304 054 bytes   00:37:40.383   
12              0:38:19.839     0:02:06.668     22 995 kbps     32 402 kbps     00:38:20.214    28 509 kbps     00:38:19.839    25 878 kbps     00:39:24.779    119 884 bytes   202 351 bytes   00:38:21.799   
13              0:40:26.507     0:03:44.099     22 580 kbps     32 285 kbps     00:43:47.958    29 277 kbps     00:41:09.133    27 951 kbps     00:41:08.841    117 724 bytes   227 423 bytes   00:42:08.859   
14              0:44:10.606     0:04:10.582     23 005 kbps     30 126 kbps     00:46:31.121    28 124 kbps     00:44:55.401    27 248 kbps     00:44:50.396    119 938 bytes   244 851 bytes   00:44:20.783   
15              0:48:21.189     0:02:50.671     22 724 kbps     34 890 kbps     00:51:00.182    32 381 kbps     00:50:58.513    30 885 kbps     00:50:54.092    118 473 bytes   240 753 bytes   00:51:00.849   
16              0:51:11.860     0:03:28.458     24 373 kbps     36 796 kbps     00:53:57.442    34 283 kbps     00:53:53.480    33 222 kbps     00:53:48.516    127 071 bytes   266 653 bytes   00:51:32.798   
17              0:54:40.318     0:04:41.072     22 744 kbps     33 869 kbps     00:59:11.839    31 877 kbps     00:59:10.797    30 552 kbps     00:59:10.713    118 575 bytes   221 271 bytes   00:59:17.595   
18              0:59:21.391     0:01:59.244     22 595 kbps     30 325 kbps     01:00:44.349    29 346 kbps     00:59:24.894    27 668 kbps     00:59:21.391    117 801 bytes   212 357 bytes   00:59:22.392   
19              1:01:20.635     0:04:56.962     23 022 kbps     35 164 kbps     01:03:47.782    33 654 kbps     01:02:15.857    32 199 kbps     01:03:46.447    120 027 bytes   218 789 bytes   01:03:48.574   
20              1:06:17.598     0:03:22.993     22 928 kbps     34 515 kbps     01:07:56.363    33 228 kbps     01:07:55.070    32 464 kbps     01:07:50.065    119 538 bytes   323 644 bytes   01:07:17.032   
21              1:09:40.591     0:04:34.358     21 222 kbps     29 863 kbps     01:10:24.762    29 285 kbps     01:10:20.925    28 467 kbps     01:10:15.920    110 641 bytes   182 009 bytes   01:10:24.845   
22              1:14:14.950     0:01:25.252     25 152 kbps     32 195 kbps     01:14:28.839    31 419 kbps     01:14:25.419    30 449 kbps     01:14:24.585    131 132 bytes   189 448 bytes   01:14:27.963   
23              1:15:40.202     0:03:47.810     24 589 kbps     33 804 kbps     01:17:18.216    32 966 kbps     01:18:01.301    30 168 kbps     01:17:57.756    128 197 bytes   195 219 bytes   01:17:16.548   
24              1:19:28.013     0:02:09.878     22 330 kbps     34 053 kbps     01:20:01.671    30 094 kbps     01:21:14.119    26 308 kbps     01:20:01.463    116 417 bytes   329 117 bytes   01:19:58.210   
25              1:21:37.892     0:01:47.565     21 439 kbps     34 217 kbps     01:21:48.445    31 213 kbps     01:22:14.971    28 288 kbps     01:22:14.846    111 773 bytes   236 593 bytes   01:22:04.961   
26              1:23:25.457     0:04:32.314     23 708 kbps     36 612 kbps     01:26:41.070    32 167 kbps     01:26:29.183    31 271 kbps     01:27:01.674    123 603 bytes   341 619 bytes   01:24:12.422   
27              1:27:57.772     0:03:56.152     23 584 kbps     34 391 kbps     01:31:49.128    33 770 kbps     01:30:45.231    32 933 kbps     01:30:44.730    122 957 bytes   484 492 bytes   01:31:50.129   
28              1:31:53.924     0:05:45.532     19 804 kbps     34 721 kbps     01:35:20.798    34 028 kbps     01:32:53.651    33 877 kbps     01:35:11.789    103 369 bytes   455 497 bytes   01:32:58.239   

STREAM DIAGNOSTICS:

File            PID             Type            Codec           Language                Seconds                 Bitrate                 Bytes           Packets         
----            ---             ----            -----           --------                --------------          --------------          -------------   -----           
00000.M2TS      4113 (0x1011)   0x1B            AVC                                     5859,020                22 905                  16 775 183 735  91 253 583     
00000.M2TS      4352 (0x1100)   0x81            AC3             rus (Russian)           5859,020                384                     281 255 424     1 647 981       
00000.M2TS      4353 (0x1101)   0x81            AC3             ukr (Ukrainian)         5859,020                192                     140 619 264     915 490         
00000.M2TS      4354 (0x1102)   0x86            DTS-HD MA       eng (English)           5859,020                5 744                   4 206 516 280   23 778 598     
00000.M2TS      4355 (0x1103)   0x81            AC3             eng (English)           5859,020                448                     328 108 032     1 830 960       
00000.M2TS      4608 (0x1200)   0x90            PGS             rus (Russian)           5859,020                13                      9 234 183       55 380         
00000.M2TS      4609 (0x1201)   0x90            PGS             ukr (Ukrainian)         5859,020                17                      12 554 346      74 636         
00000.M2TS      4610 (0x1202)   0x90            PGS             eng (English)           5859,020                25                      18 029 280      105 909         
00000.M2TS      4611 (0x1203)   0x90            PGS             spa (Spanish)           5859,020                19                      13 928 573      82 020         
00000.M2TS      4612 (0x1204)   0x90            PGS             fra (French)            5859,020                2                       1 378 748       8 829           
00000.M2TS      4613 (0x1205)   0x90            PGS             eng (English)           5859,020                58                      42 215 049      238 918         
00000.M2TS      4614 (0x1206)   0x90            PGS             eng (English)           5859,020                2                       1 247 003       8 124           

info [Профиль]  [ЛС] 

L

Пол: Пол:Муж

Стаж: 6 лет 7 месяцев

Сообщений: 10801

Украина
Рейтинг

post 15-Дек-2015 13:58 (спустя 1 час 48 минут) [-]0[+]

[Цитировать] 

Будет добавлен пятый фильм.

_________________
info [Профиль]  [ЛС] 

TorAdin

Стаж: 7 лет 2 месяца

Сообщений: 612

Рейтинг

post 15-Дек-2015 14:45 (спустя 46 минут) [-]10[+]

[Цитировать] 

L
не надо портить сборник)
info [Профиль]  [ЛС] 

altairr

Стаж: 6 лет 2 месяца

Сообщений: 36

Рейтинг

post 15-Дек-2015 15:12 (спустя 26 минут) [-]0[+]

[Цитировать] 

o_O Размер: 191.39 GB kolob_154
info [Профиль]  [ЛС] 

katalevich

Пол: Пол:Муж

Стаж: 2 года

Сообщений: 24

Россия
Рейтинг

post 15-Дек-2015 15:43 (спустя 31 минута) [-]1[+]

[Цитировать] 

без золота чет даже рука не поворачивается качать bc

_________________
Laptop: i7 5700HQ 2.7Ghz up to 3.5Ghz, 2x8Gb 1600Mhz, GTX970m, Super RAID_0 2x128Gb + HDD 1Tb, LG 1920x1080 IPS G-Sync, Keyboard SteelSeries, Audio Dynaudio.
info [Профиль]  [ЛС] 

sosok

Пол: Пол:Муж

Стаж: 6 лет 2 месяца

Сообщений: 90

Рейтинг

post 15-Дек-2015 16:02 (спустя 18 минут) [-]0[+]

[Цитировать] 

дубляж в 1 и 2 части весьма неплох еще и в DTS-е, не понятно почему 3-ю без дубляжа выпустили.

_________________
Intel Core i7-3770K, ASUS P8Z77-V PRO, Corsair XMS3 16Gb DDR3 1600 Mhz, EVGA GTX 1070 Founders Edition.
info [Профиль]  [ЛС] 

tyht

Стаж: 7 лет 6 месяцев

Сообщений: 167

Норфолк
Рейтинг

post 15-Дек-2015 16:25 (спустя 23 минуты) [-]2[+]

[Цитировать] 

TorAdin писал(а):

L
не надо портить сборник)
тут и так одна часть лишняя, беды большой не будет.
Оригинальная трилогия всё равно будет стоять особняком от последовавших за ней убогих "продолжений"
info [Профиль]  [ЛС] 

BZzz

Пол: Пол:Муж

Стаж: 5 лет 1 месяц

Сообщений: 3647

Россия
Рейтинг

post 15-Дек-2015 16:37 (спустя 11 минут) [-]0[+]

[Цитировать] 

Eвгений
 !  BZzz:
Язык субтитров укажите по русски.

_________________
info [Профиль]  [ЛС] 

Tpecca

Пол: Пол:Муж

Стаж: 7 лет 8 месяцев

Сообщений: 300

Россия
Рейтинг

post 15-Дек-2015 16:47 (спустя 10 минут) [-]0[+]

[Цитировать] 

первые 2 классика, но 3й больше нравится не смотря что сценарий писали для другого фильма, раз 10 пересматривал, 4 очень не плох для всей франшизы, а вот 5 не понравился...
info [Профиль]  [ЛС] 

rambaramba

Пол: Пол:Муж

Стаж: 1 год 10 месяцев

Сообщений: 421

Предупреждений: 1

Антарктида
Рейтинг

post 17-Дек-2015 01:56 (спустя 1 день 9 часов) [-]0[+]

[Цитировать] 

А последняя часть будет с озвучкой получше? А то с тунца звук слабенький.

_________________
Уважаемый админ, прошу добавь мне 99 предупреждений. Хочу быть самым опасным и жить на грани банана.
info [Профиль]  [ЛС] 
Показать сообщения:    
Ответить на тему

Текущее время: 06-Дек 14:14

Часовой пояс: GMT + 4



Вы не можете начинать темы
Вы не можете отвечать на сообщения
Вы не можете редактировать свои сообщения
Вы не можете удалять свои сообщения
Вы не можете голосовать в опросах
Вы не можете прикреплять файлы к сообщениям
Вы не можете скачивать файлы