Ошибка

(Rap / Hip-Hop) Guf / Гуф - Еще [Warner Music Russia, 2015 ], ALAC (tracks+.cue), lossless

Ответить на тему
 
Автор Сообщение

aNtOof!

Пол: Пол:Муж

Стаж: 7 лет 7 месяцев

Сообщений: 336

Россия
Рейтинг

post 14-Дек-2015 19:04 1[+]

[Цитировать] 

Guf / Гуф - Еще / ≡|||≡

Жанр: Rap, Hip-Hop
Производитель диска: Россия ( Warner Music Russia )
Год: 2015 || Аудио кодек: ALAC (*.m4a) || Тип рипа: tracks+.cue
Источник: rutracker ( antonhot ) || Битрейт аудио: lossless || Продолжительность: 00:56:51
Трэклист:

01. Хэллоу (02:34)
02. Маугли (03:13)
03. Выдох-вдох (02:48)
04. Неделя (04:24)
05. До ста (03:12)
06. На связи (Скит) (02:14)
07. Трамвай #2 (02:20)
08. На таран feat. Centr (04:52)
09. Н.Г.2 (03:21)
10. А.С.А.В. feat. Принцип (03:41)
11. На пальме (03:29)
12. Архив (Скит) (02:04)
13. Другой город feat. Каспийский Груз (04:50)
14. Хочу еще (03:54)
15. Вживую feat. Rigos (04:20)
16. Мысли вслух (02:58)
17. Бай (02:31)
Exact Audio Copy V1.1 from 23. June 2015 

Отчёт EAC об извлечении, выполненном 9. декабря 2015, 21:11

Гуф / Ещё

Дисковод: HL-DT-STDVDRAM GP60NB50 Adapter: 1 ID: 0

Режим чтения : Достоверность
Использование точного потока : Да
Отключение кэша аудио : Да
Использование указателей C2 : Нет

Коррекция смещения при чтении : 6
Способность читать области Lead-in и Lead-out : Нет
Заполнение пропущенных сэмплов тишиной : Да
Удаление блоков с тишиной в начале и конце : Нет
При вычислениях CRC использовались нулевые сэмплы : Да
Интерфейс : Встроенный Win32-интерфейс для Win NT/2000
Обработка зазоров : Добавлено к предыдущему треку

Выходной формат : Пользовательский кодировщик
Выбранный битрейт : 128 kBit/s
Качество : Высокий
Добавление ID3-тега : Нет
Утилита сжатия : C:\Users\Антон\Downloads\qaac_2.54\qaac_2.54\x64\refalac64.exe
Дополнительные параметры : -s --ignorelength --artist "%artist%" --title "%title%" --album "%albumtitle%" --date "%year%" --track "%tracknr%" --genre "%genre%" -o %dest% %source%

TOC извлечённого CD

Трек | Старт | Длительность | Начальный сектор | Конечный сектор
---------------------------------------------------------------------
1 | 0:00.00 | 2:36.10 | 0 | 11709
2 | 2:36.10 | 3:14.10 | 11710 | 26269
3 | 5:50.20 | 2:50.10 | 26270 | 39029
4 | 8:40.30 | 4:27.01 | 39030 | 59055
5 | 13:07.31 | 3:14.11 | 59056 | 73616
6 | 16:21.42 | 2:16.10 | 73617 | 83826
7 | 18:37.52 | 2:22.65 | 83827 | 94541
8 | 21:00.42 | 4:54.28 | 94542 | 116619
9 | 25:54.70 | 3:23.37 | 116620 | 131881
10 | 29:18.32 | 3:43.47 | 131882 | 148653
11 | 33:02.04 | 3:32.05 | 148654 | 164558
12 | 36:34.09 | 2:06.10 | 164559 | 174018
13 | 38:40.19 | 4:52.10 | 174019 | 195928
14 | 43:32.29 | 3:57.05 | 195929 | 213708
15 | 47:29.34 | 4:22.26 | 213709 | 233384
16 | 51:51.60 | 3:00.19 | 233385 | 246903
17 | 54:52.04 | 2:31.26 | 246904 | 258254

Трек 1

Имя файла C:\Users\Антон\Downloads\Музыка\Гуф - Ещё (2015)\01 Хэллоу.wav

Длина предзазора 0:00:02.00

Пиковый уровень 100.0 %
Скорость извлечения 1.1 X
Качество трека 100.0 %
CRC теста DA076EA4
CRC копии DA076EA4
Трек не обнаружен в базе AccurateRip
Копирование... OK

Трек 2

Имя файла C:\Users\Антон\Downloads\Музыка\Гуф - Ещё (2015)\02 Маугли.wav

Длина предзазора 0:00:02.00

Пиковый уровень 100.0 %
Скорость извлечения 1.2 X
Качество трека 100.0 %
CRC теста 53B3444F
CRC копии 53B3444F
Трек не обнаружен в базе AccurateRip
Копирование... OK

Трек 3

Имя файла C:\Users\Антон\Downloads\Музыка\Гуф - Ещё (2015)\03 Выдох-Вдох.wav

Длина предзазора 0:00:02.00

Пиковый уровень 100.0 %
Скорость извлечения 1.3 X
Качество трека 100.0 %
CRC теста D0C6B16D
CRC копии D0C6B16D
Трек не обнаружен в базе AccurateRip
Копирование... OK

Трек 4

Имя файла C:\Users\Антон\Downloads\Музыка\Гуф - Ещё (2015)\04 Неделя.wav

Длина предзазора 0:00:02.00

Пиковый уровень 91.7 %
Скорость извлечения 1.5 X
Качество трека 100.0 %
CRC теста 80844C7D
CRC копии 80844C7D
Трек не обнаружен в базе AccurateRip
Копирование... OK

Трек 5

Имя файла C:\Users\Антон\Downloads\Музыка\Гуф - Ещё (2015)\05 До ста.wav

Длина предзазора 0:00:02.00

Пиковый уровень 89.8 %
Скорость извлечения 1.5 X
Качество трека 100.0 %
CRC теста 2CB4C4A0
CRC копии 2CB4C4A0
Трек не обнаружен в базе AccurateRip
Копирование... OK

Трек 6

Имя файла C:\Users\Антон\Downloads\Музыка\Гуф - Ещё (2015)\06 На связи (скит).wav

Длина предзазора 0:00:02.00

Пиковый уровень 96.0 %
Скорость извлечения 1.2 X
Качество трека 99.9 %
CRC теста 0F6A5C35
CRC копии 0F6A5C35
Трек не обнаружен в базе AccurateRip
Копирование... OK

Трек 7

Имя файла C:\Users\Антон\Downloads\Музыка\Гуф - Ещё (2015)\07 Трамвай # 2.wav

Длина предзазора 0:00:02.00

Пиковый уровень 91.8 %
Скорость извлечения 1.5 X
Качество трека 100.0 %
CRC теста 0396ED5A
CRC копии 0396ED5A
Трек не обнаружен в базе AccurateRip
Копирование... OK

Трек 8

Имя файла C:\Users\Антон\Downloads\Музыка\Гуф - Ещё (2015)\08 На таран ft. Centr.wav

Длина предзазора 0:00:02.00

Пиковый уровень 100.0 %
Скорость извлечения 1.8 X
Качество трека 100.0 %
CRC теста C2288ED1
CRC копии C2288ED1
Трек не обнаружен в базе AccurateRip
Копирование... OK

Трек 9

Имя файла C:\Users\Антон\Downloads\Музыка\Гуф - Ещё (2015)\09 Н. Г. 2.wav

Длина предзазора 0:00:02.00

Пиковый уровень 89.4 %
Скорость извлечения 1.6 X
Качество трека 99.9 %
CRC теста EA59DBD6
CRC копии EA59DBD6
Трек не обнаружен в базе AccurateRip
Копирование... OK

Трек 10

Имя файла C:\Users\Антон\Downloads\Музыка\Гуф - Ещё (2015)\10 А. С. А. В. ft. Princip.wav

Длина предзазора 0:00:02.00

Пиковый уровень 100.0 %
Скорость извлечения 1.9 X
Качество трека 100.0 %
CRC теста 0AC4F1E2
CRC копии 0AC4F1E2
Трек не обнаружен в базе AccurateRip
Копирование... OK

Трек 11

Имя файла C:\Users\Антон\Downloads\Музыка\Гуф - Ещё (2015)\11 На пальме.wav

Длина предзазора 0:00:02.00

Пиковый уровень 89.4 %
Скорость извлечения 2.0 X
Качество трека 100.0 %
CRC теста CAC45826
CRC копии CAC45826
Трек не обнаружен в базе AccurateRip
Копирование... OK

Трек 12

Имя файла C:\Users\Антон\Downloads\Музыка\Гуф - Ещё (2015)\12 Архив (скит).wav

Длина предзазора 0:00:02.00

Пиковый уровень 96.0 %
Скорость извлечения 1.5 X
Качество трека 99.9 %
CRC теста 09C0AC1D
CRC копии 09C0AC1D
Трек не обнаружен в базе AccurateRip
Копирование... OK

Трек 13

Имя файла C:\Users\Антон\Downloads\Музыка\Гуф - Ещё (2015)\13 Другой город ft. Каспийский груз.wav

Длина предзазора 0:00:02.00

Пиковый уровень 100.0 %
Скорость извлечения 2.0 X
Качество трека 99.9 %
CRC теста CBBE797F
CRC копии CBBE797F
Трек не обнаружен в базе AccurateRip
Копирование... OK

Трек 14

Имя файла C:\Users\Антон\Downloads\Музыка\Гуф - Ещё (2015)\14 Хочу ещё.wav

Длина предзазора 0:00:02.00

Пиковый уровень 89.3 %
Скорость извлечения 1.9 X
Качество трека 99.9 %
CRC теста 9DFFD0F7
CRC копии 9DFFD0F7
Трек не обнаружен в базе AccurateRip
Копирование... OK

Трек 15

Имя файла C:\Users\Антон\Downloads\Музыка\Гуф - Ещё (2015)\15 Вживую ft. Rigos.wav

Длина предзазора 0:00:02.00

Пиковый уровень 89.4 %
Скорость извлечения 2.3 X
Качество трека 100.0 %
CRC теста BDB0DC2E
CRC копии BDB0DC2E
Трек не обнаружен в базе AccurateRip
Копирование... OK

Трек 16

Имя файла C:\Users\Антон\Downloads\Музыка\Гуф - Ещё (2015)\16 Мысли вслух.wav

Длина предзазора 0:00:02.00

Пиковый уровень 89.6 %
Скорость извлечения 1.9 X
Качество трека 99.9 %
CRC теста 0BDF1CF2
CRC копии 0BDF1CF2
Трек не обнаружен в базе AccurateRip
Копирование... OK

Трек 17

Имя файла C:\Users\Антон\Downloads\Музыка\Гуф - Ещё (2015)\17 Бай.wav

Длина предзазора 0:00:02.00

Пиковый уровень 89.5 %
Скорость извлечения 2.2 X
Качество трека 100.0 %
CRC теста C6FBDCE5
CRC копии C6FBDCE5
Трек не обнаружен в базе AccurateRip
Копирование... OK

Ни одного трека нет в базе AccurateRip

Ошибок не произошло

Конец отчёта

---- CUETools DB Plugin V2.1.6

[CTDB TOCID: tRnE6x1nRQe6n17ARVi58YkF57M-] disk not present in database
Submit result: tRnE6x1nRQe6n17ARVi58YkF57M- has been uploaded

==== Контрольная сумма отчёта EE02764E71EB5001BE4D3807ADD9200BCFB46E1CBBBC4DE2A7D26757F61FCA44 ====
REM GENRE Rap 
REM DATE 2015
REM DISCID ED0D7311
REM COMMENT "ExactAudioCopy v1.1"
PERFORMER "Гуф"
TITLE "Ещё"
FILE "01 Хэллоу.wav" WAVE
TRACK 01 AUDIO
TITLE "Хэллоу"
PERFORMER "Гуф"
INDEX 01 00:00:00
TRACK 02 AUDIO
TITLE "Маугли"
PERFORMER "Гуф"
INDEX 00 02:34:10
FILE "02 Маугли.wav" WAVE
INDEX 01 00:00:00
TRACK 03 AUDIO
TITLE "Выдох-Вдох"
PERFORMER "Гуф"
INDEX 00 03:12:10
FILE "03 Выдох-Вдох.wav" WAVE
INDEX 01 00:00:00
TRACK 04 AUDIO
TITLE "Неделя"
PERFORMER "Гуф"
INDEX 00 02:48:10
FILE "04 Неделя.wav" WAVE
INDEX 01 00:00:00
TRACK 05 AUDIO
TITLE "До ста"
PERFORMER "Гуф"
INDEX 00 04:25:01
FILE "05 До ста.wav" WAVE
INDEX 01 00:00:00
TRACK 06 AUDIO
TITLE "На связи (скит)"
PERFORMER "Гуф"
INDEX 00 03:12:11
FILE "06 На связи (скит).wav" WAVE
INDEX 01 00:00:00
TRACK 07 AUDIO
TITLE "Трамвай # 2"
PERFORMER "Гуф"
INDEX 00 02:14:10
FILE "07 Трамвай # 2.wav" WAVE
INDEX 01 00:00:00
TRACK 08 AUDIO
TITLE "На таран ft. Centr"
PERFORMER "Гуф"
INDEX 00 02:20:65
FILE "08 На таран ft. Centr.wav" WAVE
INDEX 01 00:00:00
TRACK 09 AUDIO
TITLE "Н. Г. 2"
PERFORMER "Гуф"
INDEX 00 04:52:28
FILE "09 Н. Г. 2.wav" WAVE
INDEX 01 00:00:00
TRACK 10 AUDIO
TITLE "А. С. А. В. ft. Princip"
PERFORMER "Гуф"
INDEX 00 03:21:37
FILE "10 А. С. А. В. ft. Princip.wav" WAVE
INDEX 01 00:00:00
TRACK 11 AUDIO
TITLE "На пальме"
PERFORMER "Гуф"
INDEX 00 03:41:47
FILE "11 На пальме.wav" WAVE
INDEX 01 00:00:00
TRACK 12 AUDIO
TITLE "Архив (скит)"
PERFORMER "Гуф"
INDEX 00 03:30:05
FILE "12 Архив (скит).wav" WAVE
INDEX 01 00:00:00
TRACK 13 AUDIO
TITLE "Другой город ft. Каспийский груз"
PERFORMER "Гуф"
INDEX 00 02:04:10
FILE "13 Другой город ft. Каспийский груз.wav" WAVE
INDEX 01 00:00:00
TRACK 14 AUDIO
TITLE "Хочу ещё"
PERFORMER "Гуф"
INDEX 00 04:50:10
FILE "14 Хочу ещё.wav" WAVE
INDEX 01 00:00:00
TRACK 15 AUDIO
TITLE "Вживую ft. Rigos"
PERFORMER "Гуф"
INDEX 00 03:55:05
FILE "15 Вживую ft. Rigos.wav" WAVE
INDEX 01 00:00:00
TRACK 16 AUDIO
TITLE "Мысли вслух"
PERFORMER "Гуф"
INDEX 00 04:20:26
FILE "16 Мысли вслух.wav" WAVE
INDEX 01 00:00:00
TRACK 17 AUDIO
TITLE "Бай"
PERFORMER "Гуф"
INDEX 00 02:58:19
FILE "17 Бай.wav" WAVE
INDEX 01 00:00:00
info [Профиль]  [ЛС] 

andaks

Стаж: 6 лет 7 месяцев

Сообщений: 51

Рейтинг

post 15-Дек-2015 23:23 (спустя 1 день 4 часа) [-]27[+]

[Цитировать] 

Да нуу фейк, он же еще в том году умер. или это из не изданного?
info [Профиль]  [ЛС] 

aNtOof!

Пол: Пол:Муж

Стаж: 7 лет 7 месяцев

Сообщений: 336

Россия
Рейтинг

post 15-Дек-2015 23:42 (спустя 19 минут) [-]0[+]

[Цитировать] 

andaks писал(а):

Да нуу фейк, он же еще в том году умер. или это из не изданного?
Сэр, полно тем где можно отхватить минуса, но здесь нету ни одних ни других минусов для Вас kolob_185
info [Профиль]  [ЛС] 

Glukonatus

Стаж: 7 лет 3 месяца

Сообщений: 53

Рейтинг

post 16-Дек-2015 00:46 (спустя 1 час 3 минуты) [-]-3[+]

[Цитировать] 

Так он же умер, откуда альбом?
info [Профиль]  [ЛС] 

LotUS

Пол: Пол:Муж

Стаж: 4 года 5 месяцев

Сообщений: 50

СССР
Рейтинг

post 16-Дек-2015 01:28 (спустя 41 минута) [-]-1[+]

[Цитировать] 

Есть че достойное или так се?

_________________
i'm one part saint n two part sinner n the last part is still on a line
info [Профиль]  [ЛС] 

maximus_197

Пол: Пол:Муж

Стаж: 7 лет 3 месяца

Сообщений: 16

Россия
Рейтинг

post 16-Дек-2015 10:14 (спустя 8 часов) [-]-2[+]

[Цитировать] 

Чё его похоронили,не знаю?)))Жив курилка))))))https://ru.wikipedia.org/wiki/Guf
info [Профиль]  [ЛС] 

maikl7

Пол: Пол:Муж

Стаж: 4 года 5 месяцев

Сообщений: 132

Россия
Рейтинг

post 16-Дек-2015 10:48 (спустя 34 минуты) [-]-2[+]

[Цитировать] 

m4a мало в каком магнитофоне автомобильном воспроизведётся
mp3 всё-таки более распространённый формат и популярный...
info [Профиль]  [ЛС] 

DVcon

Пол: Пол:Муж

Стаж: 4 года

Сообщений: 87

Россия
Рейтинг

post 16-Дек-2015 11:43 (спустя 55 минут) [-]13[+]

[Цитировать] 

Из за этого обсоска картавого рутрекер закрывают Улыбаюсь

_________________
info [Профиль]  [ЛС] 

Wadx

Пол: Пол:Муж

Стаж: 3 года 4 месяца

Сообщений: 20

Россия
Рейтинг

post 16-Дек-2015 19:28 (спустя 7 часов) [-]5[+]

[Цитировать] 

Очередная пропаганда антисоциального образа жизни? Бухать, шабить говно, проводить свободное время в клубе приветствуется. Это образ жизни дегенерата.
info [Профиль]  [ЛС] 

leSang

Пол: Пол:Муж

Стаж: 7 лет 8 месяцев

Сообщений: 926

Япония
Рейтинг

post 17-Дек-2015 11:40 (спустя 16 часов) [-]0[+]

[Цитировать] 

гуф стал как маленький, ей богу, лапочет себе что то, что крутой, все боятся, что еще есть порох в пороховнице, что жив еще, ужас какой =\
музыкальности нет к тому же, какое то все рутинное

_________________
info [Профиль]  [ЛС] 
Показать сообщения:    
Ответить на тему

Текущее время: 06-Дек 21:58

Часовой пояс: GMT + 4



Вы не можете начинать темы
Вы не можете отвечать на сообщения
Вы не можете редактировать свои сообщения
Вы не можете удалять свои сообщения
Вы не можете голосовать в опросах
Вы не можете прикреплять файлы к сообщениям
Вы не можете скачивать файлы