Ошибка

Перепутье Анж / Cross Ange (TV-1) [1-25 из 25] [2015] [приключения, мистика, боевик, меха, романтика] [BDRip1080p] [Любительский (Многоголосый)]

Ответить на тему
 
Автор Сообщение

Chel90RUS

Пол: Пол:Муж

Стаж: 5 лет 5 месяцев

Сообщений: 413

Россия
Рейтинг

post 14-Дек-2015 01:33 0[+]

[Цитировать] 

pic="http://static2.anidub.com/tracker/poster/ecae9b2586.jpg"
Перепутье Анж
Cross Ange / クロスアンジュ

Год выпуска: 2014
Жанр: приключения, мистика, боевик, меха, романтика
Страна: Япония
Тип: BDRip
Продолжительность: 25 серий ~ 25 мин
Дата выпуска: c 05.10.2014 по 29.03.2015
Режиссер: Асино Ёсихару
Автор оригинала / Сценарист: Хигути Тацуто
Озвучено: Cuba77, Nika Lenina, Kiara_Laine
Перевод: FooBoo
Тайминг и работа со звуком: Sakuragi_R, Al'pair
Студия: Sunrise

Формат файла: MKV
Аудио: Dolby AC3 48000Hz stereo 192kbps [A: Russian [rus] (ac3, 48000 Hz, stereo, 192 kb/s) [default]]
Видео: MPEG4 Video (H264) 1920x1080 23.976fps 11.4 Mbps [V: h264 high L4.0, yuv420p, 1920x1080 [default]]
General
Unique ID : 233459022992740015109257699226359304271 (0xAFA292835C6E0ED3BD5A3EB2F2FE104F)
Complete name : \[AniDub]_Cross_Ange_[01]_[BDRip_1920x1080_x264_Ac3]_[MVO].mkv
Format : Matroska
Format version : Version 4 / Version 2
File size : 1.96 GiB
Duration : 23mn 41s
Overall bit rate : 11.8 Mbps
Movie name : [ReinForce] Cross Ange - Tenshi to Ryuu no Rondo 01 (BDRip 1920x1080 x264 FLAC)
Encoded date : UTC 2015-12-13 11:21:55
Writing application : mkvmerge v8.6.1 ('Flying') 64bit
Writing library : libebml v1.3.3 + libmatroska v1.4.4
DURATION : 00:23:41.056000000
NUMBER_OF_FRAMES : 44408
NUMBER_OF_BYTES : 34105344
_STATISTICS_WRITING_APP : mkvmerge v8.6.1 ('Flying') 64bit
_STATISTICS_WRITING_DATE_UTC : 2015-12-13 11:21:55
_STATISTICS_TAGS : BPS DURATION NUMBER_OF_FRAMES NUMBER_OF_BYTES

Video
ID : 1
Format : AVC
Format/Info : Advanced Video Codec
Format profile : High@L4
Format settings, CABAC : Yes
Format settings, ReFrames : 4 frames
Codec ID : V_MPEG4/ISO/AVC
Duration : 23mn 41s
Bit rate : 11.4 Mbps
Width : 1 920 pixels
Height : 1 080 pixels
Display aspect ratio : 16:9
Frame rate mode : Constant
Frame rate : 23.976 fps
Color space : YUV
Chroma subsampling : 4:2:0
Bit depth : 8 bits
Scan type : Progressive
Bits/(Pixel*Frame) : 0.229
Stream size : 1.89 GiB (96%)
Writing library : x264 core 142
Encoding settings : opencl=1 / cabac=1 / ref=4 / deblock=1:-2:-2 / analyse=0x3:0x113 / me=umh / subme=9 / psy=1 / psy_rd=0.70:0.00 / mixed_ref=0 / me_range=32 / chroma_me=1 / trellis=2 / 8x8dct=1 / cqm=0 / deadzone=21,11 / fast_pskip=1 / chroma_qp_offset=-2 / threads=8 / lookahead_threads=1 / sliced_threads=0 / nr=0 / decimate=1 / interlaced=0 / bluray_compat=0 / constrained_intra=0 / bframes=9 / b_pyramid=2 / b_adapt=2 / b_bias=0 / direct=3 / weightb=1 / open_gop=0 / weightp=2 / keyint=250 / keyint_min=23 / scenecut=40 / intra_refresh=0 / rc_lookahead=40 / rc=crf / mbtree=1 / crf=16.0 / qcomp=0.70 / qpmin=10 / qpmax=20 / qpstep=4 / ip_ratio=1.40 / aq=1:1.00
Default : Yes
Forced : No

Audio
ID : 2
Format : AC-3
Format/Info : Audio Coding 3
Mode extension : CM (complete main)
Format settings, Endianness : Big
Codec ID : A_AC3
Duration : 23mn 41s
Bit rate mode : Constant
Bit rate : 192 Kbps
Channel(s) : 2 channels
Channel positions : Front: L R
Sampling rate : 48.0 KHz
Compression mode : Lossy
Stream size : 32.5 MiB (2%)
Language : Russian
Default : Yes
Forced : No

Описание: Далекое будущее. В нем человечество открыло новый источник энергии "Ману". Благодаря ей в мире больше нет войн, голода, безработицы, нищеты и.т.д.
Проще говоря мир стал идеальной утопией и раем для всех. Но у каждой истории есть свое "но". Существуют такие люди, которые не могут управлять "маной" и отвергают ее. Подобных людей зовут "Норма" и обращаются с ними хуже, чем с крысами.
Наша же история пойдет о первой принцессе империи Мицуруги - Анжелизе Икаруге Мицуруги, которая ищет свой путь в жизни и ответы на вопросы, которые ее интересуют.
И совсем скоро, на празднике в честь ее шестнадцатилетия жизнь Анжелизы в корне изменится.
01. Падшая принцесса
02. Непреклонный дух
03. Пробуждение Викинга
04. Восхождение одиночки
05. Потерявшаяся
06. Появление Момоки!
07. Депрессия с Алией
08. Побег в бикини
09. Родной дом и предательство
10. Спасение от казни
11. Песня дракона
12. Прошлое её правой руки
13. Арзенал в огне
14. Андж и Таск
15. Другая земля
16. Резонанс поля боя
17. Чёрный ангел разрушения
18. Море перемен
19. Корректор времени
20. Душа бога
21. Последний выживший
22. Необходимость
23. Искажённый мир
24. Битва без будущего
25. К концу времён

info [Профиль]  [ЛС] 

altairr

Стаж: 6 лет 2 месяца

Сообщений: 36

Рейтинг

post 16-Дек-2015 06:19 (спустя 2 дня 4 часа) [-]0[+]

[Цитировать] 

Ох как я люблю шаловливых девчонок. Спасибо за 6-ой скриншот. bo
info [Профиль]  [ЛС] 
Показать сообщения:    
Ответить на тему

Текущее время: 06-Дек 23:59

Часовой пояс: GMT + 4



Вы не можете начинать темы
Вы не можете отвечать на сообщения
Вы не можете редактировать свои сообщения
Вы не можете удалять свои сообщения
Вы не можете голосовать в опросах
Вы не можете прикреплять файлы к сообщениям
Вы не можете скачивать файлы