Ошибка

За Гранью: Я буду рядом - Будущее / Kyoukai no Kanata: I'll Be Here - Mirai Hen [Movie] [2015] [приключения, мистика, романтика] [BDRip720p] [Любительский(Многоголосый)]

Ответить на тему
 
Автор Сообщение

Chel90RUS

Пол: Пол:Муж

Стаж: 5 лет 5 месяцев

Сообщений: 413

Россия
Рейтинг

post 02-Дек-2015 14:41 1[+]

[Цитировать] 

pic="http://savepic.org/7956021.jpg"
За Гранью: Я буду рядом - Будущее
Kyoukai no Kanata: I'll Be Here - Mirai Hen / 劇場版 境界の彼方 -I'll Be Here- 未来篇

Дата выпуска: 25.04.2015
Жанр: приключения, мистика, романтика
Страна: Япония
Тип: BDRip
Продолжительность: 90 мин.
Режиссер: Исидатэ Тайти
Автор оригинала / Сценарист: Тории Нагому
Озвучено: Ancord, JAM, Trina_D, Nika Lenina, Гамлетка Цезаревна
Перевод: Василий
Тайминг и работа со звуком: Sakuragi_R
Студия: Kyoto Animation
Аудио: AAC 48000Hz stereo 192kbps [A: Russian [rus] (aac lc, 48000 Hz, stereo, 192 kb/s)]
Видео: MPEG4 Video (H264) 1280x720 23.976fps 2264kbps [V: h264 main L4.1, yuv420p, 1280x720, 2264 kb/s]
General
Complete name : E:\Загрузки\Торренты\Аниме\[AniDub]__Gekijouban_Kyoukai_no_Kanata_I'll_Be_Here_-_Mirai_Hen_[BDrip720p_x264_Aac]_[MVO].mp4
Format : MPEG-4
Format profile : Base Media
Codec ID : isom
File size : 1.55 GiB
Duration : 1h 30mn
Overall bit rate mode : Variable
Overall bit rate : 2 461 Kbps
Encoded date : UTC 2015-11-29 21:02:15
Tagged date : UTC 2015-11-29 21:02:15
Writing application : Yamb 2.1.0.0

Video
ID : 1
Format : AVC
Format/Info : Advanced Video Codec
Format profile : Main@L4.1
Format settings, CABAC : Yes
Format settings, ReFrames : 4 frames
Codec ID : avc1
Codec ID/Info : Advanced Video Coding
Duration : 1h 30mn
Bit rate : 2 264 Kbps
Maximum bit rate : 16.4 Mbps
Width : 1 280 pixels
Height : 720 pixels
Display aspect ratio : 16:9
Frame rate mode : Constant
Frame rate : 23.976 fps
Color space : YUV
Chroma subsampling : 4:2:0
Bit depth : 8 bits
Scan type : Progressive
Bits/(Pixel*Frame) : 0.102
Stream size : 1.42 GiB (92%)
Writing library : x264 core 148 r2597 e86f3a1
Encoding settings : cabac=1 / ref=3 / deblock=1:0:0 / analyse=0x1:0x131 / me=umh / subme=9 / psy=1 / psy_rd=1.00:0.00 / mixed_ref=1 / me_range=32 / chroma_me=1 / trellis=1 / 8x8dct=0 / cqm=0 / deadzone=21,11 / fast_pskip=1 / chroma_qp_offset=-2 / threads=12 / lookahead_threads=1 / sliced_threads=0 / nr=0 / decimate=1 / interlaced=0 / bluray_compat=0 / constrained_intra=0 / bframes=3 / b_pyramid=2 / b_adapt=1 / b_bias=0 / direct=1 / weightb=1 / open_gop=0 / weightp=2 / keyint=240 / keyint_min=1 / scenecut=40 / intra_refresh=0 / rc_lookahead=40 / rc=crf / mbtree=1 / crf=17.0 / qcomp=0.60 / qpmin=0 / qpmax=69 / qpstep=4 / ip_ratio=1.40 / aq=1:1.00
Encoded date : UTC 2015-10-09 04:53:58
Tagged date : UTC 2015-11-29 21:03:22

Audio
ID : 2
Format : AAC
Format/Info : Advanced Audio Codec
Format profile : LC
Codec ID : 40
Duration : 1h 30mn
Bit rate mode : Variable
Bit rate : 192 Kbps
Maximum bit rate : 202 Kbps
Channel(s) : 2 channels
Channel positions : Front: L R
Sampling rate : 48.0 KHz
Compression mode : Lossy
Stream size : 124 MiB (8%)
Language : Russian
Encoded date : UTC 2015-11-29 21:03:14
Tagged date : UTC 2015-11-29 21:03:22

Описание: Курияма Мирай вернулась живой и невредимой с той стороны. И казалось-бы, что все хорошо, но...она полностью потеряла память. Забыла то, кто она такая и всех своих друзей.
Канбара с друзьями решает не рассказывать ей правды и вообще лично держаться от нее подальше. Ведь так у нее будет шанс жить нормальной жизнью и не знать о проклятой крови. Но как долго сможет продолжаться такой спектакль? Куда пропали Насэ Изуми и Фуджима Мироку? Смотрите и увидите сами. .

info [Профиль]  [ЛС] 

thestix

Пол: Пол:Муж

Стаж: 3 года 7 месяцев

Сообщений: 3

Рейтинг

post 03-Дек-2015 02:59 (спустя 12 часов) [-]0[+]

[Цитировать] 

Нет. Я не верю. Все закончилось в оригинальном сериале и этого я не качал и не смотрел.
P.S. На самом деле скачал и посмотрел, чего вам делать не советую, оно того не стоит.
info [Профиль]  [ЛС] 

NovA_JKE

Пол: Пол:Жен

Стаж: 6 лет 9 месяцев

Сообщений: 413

Антарктида
Рейтинг

post 03-Дек-2015 18:52 (спустя 15 часов) [-]1[+]

[Цитировать] 

thestix писал(а):

Нет. Я не верю. Все закончилось в оригинальном сериале и этого я не качал и не смотрел.
P.S. На самом деле скачал и посмотрел, чего вам делать не советую, оно того не стоит.
ой, да ладно, норм кинчик, не обижай куриямочку!
info [Профиль]  [ЛС] 
Показать сообщения:    
Ответить на тему

Текущее время: 05-Дек 04:34

Часовой пояс: GMT + 4



Вы не можете начинать темы
Вы не можете отвечать на сообщения
Вы не можете редактировать свои сообщения
Вы не можете удалять свои сообщения
Вы не можете голосовать в опросах
Вы не можете прикреплять файлы к сообщениям
Вы не можете скачивать файлы