Ошибка

Семь смертных грехов / Nanatsu no Taizai (Окамура Тэнсай) [OVA] [1-2 из 2] [2015] [приключения, фэнтези] [DVDRip] [720p] [JAP+SUB]

Ответить на тему
 
Автор Сообщение

FuegoAlma

Пол: Пол:Муж

Стаж: 1 год

Сообщений: 3

Япония
Рейтинг

post 28-Ноя-2015 16:32 6[+]

[Цитировать] 


Год выпуска: 2015
Страна: Япония
Жанр: Приключения, фэнтези
Продолжительность: OVA (2 эп.), 25 мин.
Выпуск: c 17.06.2015 по 12.08.2015
Перевод:
  • русские субтитры от Cafesubs (полные/вспомогательные)
    переводчик/редактор Anku, mutagenb

Режиссер: Окамура Тэнсай
Студия:
Описание:
Земли старой Британии еще помнят древнее волшебство, в тайных местах порхают феи и водятся чудовища. Но в королевстве Лионесс главными чудищами считают Семь Смертных грехов – семерку великих воинов, что когда-то верно служили людям, а потом начали убивать, чтобы свергнуть короля и захватить власть. Орден Святых рыцарей прогнал предателей и с тех пор хранит покой королевства, но сбежавшие недобитки где-то затаились, потому орден вынужден усиливать бдительность, набирать людей и строить новые крепости.

А вот юная Элизабет, младшая принцесса Лионесса, рассказала своему спасителю, молодому хозяину бара «Кабанья шляпа», другую историю. Оказывается, Святые рыцари много лет творят полный произвол, а недавно отправили за решетку марионетку-короля с семьей – ей самой едва удалось бежать. «Святош» все боятся, так что принцесса решила искать Семерых – больше ей никто не поможет. Что ж, впереди у отважной девушки много интересного – роль боевой официантки, посещение Города Мертвых, злодеи в белом и гонки на боевой свинье. Подумаешь, Семь грехов! Не согрешишь – не покаешься, не покаешься – не спасешься!
© Hollow, World Art
Информационные ссылки: AniDB || World Art || MAL
Качество: DVDRip
Энкод: FuegoAlma (Akatomba-Raws)
Тип видео: без хардсаба, без линковки
Формат: MKV
Видео: x264, (10bit), 1280x720, ~ 2500 Kbps, 23,976 fps
Аудио JAP: AC3, 16bit, 448kbps, 48000Hz, 2ch
 
General
Unique ID : 247455977907635827700461974568167343241 (0xBA2A49ABC0CAB001AEED204C86310489)
Complete name : E:\Anime\my encode\[Akatomba-Raws] Nanatsu no Taizai OVA (DVD 1280x720 x264 AC3)\[Akatomba-Raws] Nanatsu no Taizai OVA - 1 (DVD 1280x720 x264 AC3).mkv
Format : Matroska
Format version : Version 2
File size : 479 MiB
Duration : 24mn 10s
Overall bit rate : 2 769 Kbps
Encoded date : UTC 2015-10-21 20:37:42
Writing application : mkvmerge v8.4.0 ('A better way to fly') 32bit
Writing library : libebml v1.3.1 + libmatroska v1.4.2
DURATION : 00:24:10.112000000
NUMBER_OF_FRAMES : 45316
NUMBER_OF_BYTES : 81206272
_STATISTICS_WRITING_APP : mkvmerge v8.4.0 ('A better way to fly') 32bit
_STATISTICS_WRITING_DATE_UT : 2015-10-21 20:37:42
_STATISTICS_TAGS : BPS DURATION NUMBER_OF_FRAMES NUMBER_OF_BYTES

Video
ID : 1
Format : AVC
Format/Info : Advanced Video Codec
Format profile : High 10@L4.1
Format settings, CABAC : Yes
Format settings, ReFrames : 9 frames
Codec ID : V_MPEG4/ISO/AVC
Duration : 24mn 10s
Bit rate : 2 266 Kbps
Width : 1 280 pixels
Height : 720 pixels
Display aspect ratio : 16:9
Frame rate mode : Constant
Frame rate : 23.976 fps
Color space : YUV
Chroma subsampling : 4:2:0
Bit depth : 10 bits
Scan type : Progressive
Bits/(Pixel*Frame) : 0.103
Stream size : 392 MiB (82%)
Title : Encode by FuegoAlma
Writing library : x264 core 142 (DJATOM's build)
Encoding settings : cabac=1 / ref=9 / deblock=1:1:-1 / analyse=0x3:0x133 / me=umh / subme=9 / psy=1 / psy_rd=1.00:0.00 / mixed_ref=1 / me_range=32 / chroma_me=1 / trellis=2 / 8x8dct=1 / cqm=0 / deadzone=21,11 / fast_pskip=1 / chroma_qp_offset=-2 / threads=3 / lookahead_threads=1 / sliced_threads=0 / nr=0 / decimate=1 / interlaced=0 / bluray_compat=0 / constrained_intra=0 / bframes=9 / b_pyramid=2 / b_adapt=2 / b_bias=0 / direct=1 / weightb=1 / open_gop=0 / weightp=2 / keyint=250 / keyint_min=23 / scenecut=40 / intra_refresh=0 / rc=crf / mbtree=0 / crf=16.0000 / qcomp=0.72 / qpmin=0 / qpmax=81 / qpstep=4 / ip_ratio=1.40 / pb_ratio=1.30 / aq=1:0.85
Default : Yes
Forced : No
Color range : Limited
Color primaries : BT.709
Transfer characteristics : BT.709
Matrix coefficients : BT.709

Audio
ID : 2
Format : AC-3
Format/Info : Audio Coding 3
Mode extension : CM (complete main)
Format settings, Endianness : Big
Codec ID : A_AC3
Duration : 24mn 10s
Bit rate mode : Constant
Bit rate : 448 Kbps
Channel(s) : 2 channels
Channel positions : Front: L R
Sampling rate : 48.0 KHz
Compression mode : Lossy
Stream size : 77.4 MiB (16%)
Title : Original
Language : Japanese
Default : Yes
Forced : No
[Akatomba-Raws]
info [Профиль]  [ЛС] 

Nova007

Пол: Пол:Муж

Стаж: 5 лет 5 месяцев

Сообщений: 129

Россия
Рейтинг

post 28-Ноя-2015 17:10 (спустя 38 минут) [-]0[+]

[Цитировать] 

Это типа полнометражка?
info [Профиль]  [ЛС] 

FuegoAlma

Пол: Пол:Муж

Стаж: 1 год

Сообщений: 3

Япония
Рейтинг

post 28-Ноя-2015 17:19 (спустя 9 минут) [-]0[+]

[Цитировать] 

Nova007 писал(а):

Это типа полнометражка?
это овашки. что это такое смотрите и читайте на ВА

_________________
FuegoAlma | Akatomba-Raws
info [Профиль]  [ЛС] 

Chihiro

Пол: Пол:Муж

Стаж: 6 лет 4 месяца

Сообщений: 31

Россия
Рейтинг

post 28-Ноя-2015 17:42 (спустя 23 минуты) [-]5[+]

[Цитировать] 

FuegoAlma
С переходом на лапти kolob_118
info [Профиль]  [ЛС] 

Big23

Стаж: 6 лет 5 месяцев

Сообщений: 993

Зимбабве
Рейтинг

post 28-Ноя-2015 22:25 (спустя 4 часа) [-]0[+]

[Цитировать] 

Спойлерните, плиз, про что овашки (если повторяют сюжет сериала, то качать не буду, лучше его самого пересмотрю, в онгоинге был ничегошен!)

_________________
везде требуются космонавты
info [Профиль]  [ЛС] 

FuegoAlma

Пол: Пол:Муж

Стаж: 1 год

Сообщений: 3

Япония
Рейтинг

post 28-Ноя-2015 23:07 (спустя 42 минуты) [-]1[+]

[Цитировать] 

Big23
1. расширенная история о Элейн
2. толком не смотрел, но что-то похожее на то, чего не было в сериале. какая-то странная история в духе обычных овашек, ориентарованная на то, чтобы поржать.

_________________
FuegoAlma | Akatomba-Raws
info [Профиль]  [ЛС] 

Big23

Стаж: 6 лет 5 месяцев

Сообщений: 993

Зимбабве
Рейтинг

post 28-Ноя-2015 23:55 (спустя 48 минут) [-]0[+]

[Цитировать] 

Фуф, хоть номинально есь причина зачем позырить.
Благодарствую за ответик.

_________________
везде требуются космонавты
info [Профиль]  [ЛС] 
Показать сообщения:    
Ответить на тему

Текущее время: 11-Дек 08:13

Часовой пояс: GMT + 4



Вы не можете начинать темы
Вы не можете отвечать на сообщения
Вы не можете редактировать свои сообщения
Вы не можете удалять свои сообщения
Вы не можете голосовать в опросах
Вы не можете прикреплять файлы к сообщениям
Вы не можете скачивать файлы