Ошибка

35ый отряд Антимагической академии / Taimadou Gakuen 35 Shiken Shoutai (TV) [1-12 из 12] [2015] [Комедия, школа, фэнтези, военный, сверхъестественное] [BDRip1080p] [Любительский]

Ответить на тему
 
Автор Сообщение

Chel90RUS

Пол: Пол:Муж

Стаж: 5 лет 5 месяцев

Сообщений: 413

Россия
Рейтинг

post 28-Ноя-2015 14:51 0[+]

[Цитировать] 

pic="http://static2.anidub.com/tracker/poster/bd161bd838.jpg"
35ый отряд Антимагической академии
Taimadou Gakuen 35 Shiken Shoutai / 対魔導学園35試験小隊

Год выпуска: 2015
Страна: Япония
Жанр: Комедия, школа, фэнтези, военный, сверхъестественное
Тип: BDRip
Продолжительность: 12 серий ~ 25 минут
Дата выпуска: c 08.10.2015 по 24.12.2015
Студия: Silver Link
Режиссер: Кавамура Томоюки
Автор оригинала: Янагими Токи
Озвучено: Ancord, Jade, Гамлетка Цезаревна, 9й неизвестный
Перевод: Jeka субтитры отдельно
Информация о видео:
Формат: MKV

Аудио: Dolby AC3 48000Hz stereo 192kbps [A: ac3, 48000 Hz, stereo, 192 kb/s [default]]
Видео: MPEG4 Video (H264) 1920x1080 23.976fps [V: h264 high L4.0, yuv420p, 1920x1080 [default]]

General
Unique ID : 245093418119187599126598224268941902135 (0xB863467AE640EE2A9251EB88D4E4C137)
Complete name : \[AniDub]_Taimadou_Gakuen_35_Shiken_Shoutai_[01]_[BD_1920x1080_x264_AC3]_[Ancord_Jade_HC_9th_unknown].mkv
Format : Matroska
Format version : Version 4 / Version 2
File size : 1.08 GiB
Duration : 23mn 42s
Overall bit rate : 6 502 Kbps
Encoded date : UTC 2016-07-10 09:30:47
Writing application : mkvmerge v8.3.0 ('Over the Horizon') 32bit
Writing library : libebml v1.3.1 + libmatroska v1.4.2
DURATION : 00:23:42.048000000
NUMBER_OF_FRAMES : 44439
NUMBER_OF_BYTES : 34129152
_STATISTICS_WRITING_APP : mkvmerge v8.3.0 ('Over the Horizon') 32bit
_STATISTICS_WRITING_DATE_UTC : 2016-07-10 09:30:47
_STATISTICS_TAGS : BPS DURATION NUMBER_OF_FRAMES NUMBER_OF_BYTES

Video
ID : 1
Format : AVC
Format/Info : Advanced Video Codec
Format profile : High@L4
Format settings, CABAC : Yes
Format settings, ReFrames : 4 frames
Codec ID : V_MPEG4/ISO/AVC
Duration : 23mn 42s
Bit rate : 6 181 Kbps
Width : 1 920 pixels
Height : 1 080 pixels
Display aspect ratio : 16:9
Frame rate mode : Constant
Frame rate : 23.976 fps
Color space : YUV
Chroma subsampling : 4:2:0
Bit depth : 8 bits
Scan type : Progressive
Bits/(Pixel*Frame) : 0.124
Stream size : 1.02 GiB (95%)
Writing library : x264 core 142
Encoding settings : cabac=1 / ref=4 / deblock=1:-2:-2 / analyse=0x3:0x113 / me=umh / subme=9 / psy=1 / psy_rd=0.70:0.00 / mixed_ref=0 / me_range=32 / chroma_me=1 / trellis=2 / 8x8dct=1 / cqm=0 / deadzone=21,11 / fast_pskip=1 / chroma_qp_offset=-2 / threads=32 / lookahead_threads=5 / sliced_threads=0 / nr=0 / decimate=1 / interlaced=0 / bluray_compat=0 / constrained_intra=0 / bframes=9 / b_pyramid=2 / b_adapt=2 / b_bias=0 / direct=3 / weightb=1 / open_gop=0 / weightp=2 / keyint=250 / keyint_min=23 / scenecut=40 / intra_refresh=0 / rc_lookahead=40 / rc=crf / mbtree=1 / crf=16.0 / qcomp=0.70 / qpmin=10 / qpmax=20 / qpstep=4 / ip_ratio=1.40 / aq=1:1.00
Default : Yes
Forced : No

Audio
ID : 2
Format : AC-3
Format/Info : Audio Coding 3
Mode extension : CM (complete main)
Format settings, Endianness : Big
Codec ID : A_AC3
Duration : 23mn 42s
Bit rate mode : Constant
Bit rate : 192 Kbps
Channel(s) : 2 channels
Channel positions : Front: L R
Sampling rate : 48.0 KHz
Compression mode : Lossy
Stream size : 32.5 MiB (3%)
Default : Yes
Forced : No

Описание: 35-е экспериментальное подразделение — одно из военизированных подразделений, обосновавшихся под крылом так называемой «Антимагической академии». Непосредственной задачей этой академии является взращивание бойцов — инквизиторов — способных предотвратить любую магическую угрозу. Однако такое название, как «35-е экспериментальное подразделение», лишь на словах кажется чем-то внушительным. На деле — это сборище эгоцентричных людей с личностными проблемами, людей, не способных к взаимовыгодному сотрудничеству.


Изменено качество на BDRip1080p 12/07/2016
info [Профиль]  [ЛС] 

Aldorr

Стаж: 7 лет 8 месяцев

Сообщений: 213

Украина
Рейтинг

post 28-Ноя-2015 20:22 (спустя 5 часов) [-]0[+]

[Цитировать] 

Книжка была ничо. Аниме норм?

_________________
догорает свеча,
что-то тихо шепча
молчаливой
громаде
меча
info [Профиль]  [ЛС] 

Chel90RUS

Пол: Пол:Муж

Стаж: 5 лет 5 месяцев

Сообщений: 413

Россия
Рейтинг

post 28-Ноя-2015 20:32 (спустя 10 минут) [-]-1[+]

[Цитировать] 

Aldorr писал(а):

Книжка была ничо. Аниме норм?
Норм

_________________
info [Профиль]  [ЛС] 

Chel90RUS

Пол: Пол:Муж

Стаж: 5 лет 5 месяцев

Сообщений: 413

Россия
Рейтинг

post 06-Дек-2015 12:23 (спустя 7 дней) [-]-1[+]

[Цитировать] 

Добавлена 9 серия

_________________
info [Профиль]  [ЛС] 

Chel90RUS

Пол: Пол:Муж

Стаж: 5 лет 5 месяцев

Сообщений: 413

Россия
Рейтинг

post 12-Дек-2015 18:10 (спустя 6 дней) [-]-1[+]

[Цитировать] 

Добавлена 10 серия 12/12/2015

_________________
info [Профиль]  [ЛС] 

Chel90RUS

Пол: Пол:Муж

Стаж: 5 лет 5 месяцев

Сообщений: 413

Россия
Рейтинг

post 24-Дек-2015 23:07 (спустя 12 дней) [-]-1[+]

[Цитировать] 

Добавлена 11 серия 24/12/2015

_________________
info [Профиль]  [ЛС] 

Chel90RUS

Пол: Пол:Муж

Стаж: 5 лет 5 месяцев

Сообщений: 413

Россия
Рейтинг

post 26-Дек-2015 17:20 (спустя 1 день 18 часов) [-]0[+]

[Цитировать] 

Добавлена 12 серия и субтитры от Jeka 26/12/2015

_________________
info [Профиль]  [ЛС] 

Chel90RUS

Пол: Пол:Муж

Стаж: 5 лет 5 месяцев

Сообщений: 413

Россия
Рейтинг

post 12-Июл-2016 11:59 (спустя 6 месяцев 16 дней) [-]0[+]

[Цитировать] 

Изменено качество на BDRip1080p 12/07/2016

_________________
info [Профиль]  [ЛС] 
Показать сообщения:    
Ответить на тему

Текущее время: 11-Дек 02:29

Часовой пояс: GMT + 4



Вы не можете начинать темы
Вы не можете отвечать на сообщения
Вы не можете редактировать свои сообщения
Вы не можете удалять свои сообщения
Вы не можете голосовать в опросах
Вы не можете прикреплять файлы к сообщениям
Вы не можете скачивать файлы