Ошибка

Приключения Пикси / Pixies (Шон Патрик О’Рейли) [2015, мультфильм, комедия, WEB-DL 720p]

Ответить на тему
 
Автор Сообщение

BZzz

Пол: Пол:Муж

Стаж: 5 лет 1 месяц

Сообщений: 3647

Россия
Рейтинг

post 27-Ноя-2015 17:42 0[+]

[Цитировать] 

Приключения Пикси / Pixies
«Их проделки сводят с ума!»




Год выпуска: 2015
Страна: Канада
Жанр: мультфильм, комедия
Продолжительность: 01:17:29
Перевод: Профессиональный (дублированный)[цифровая лицензия iTunes]

Режиссер: Шон Патрик О’Рейли

В ролях: Алекса ПенаВега☆Alexa PenaVega (Michelle Meyers, озвучка), Карлос ПенаВега☆Carlos PenaVega (William, озвучка), Билл Пэкстон☆Bill Paxton (Eddie Beck, озвучка), Кристофер Пламмер☆Christopher Plummer (Pixie King, озвучка), Джофф Густафссон☆Geoff Gustafson (Sam, озвучка), Элисон Вандзура☆Alison Wandzura (Gail, озвучка), Дэвид Милчард☆David Milchard (Pixie Page, озвучка), Кифер О’Рейли☆Kiefer O'Reilly (Worker Pixie, озвучка), Шон Патрик О’Рейли☆Sean Patrick O'Reilly (Joe Beck, озвучка), Эрик Поллинс☆Eric Pollins (Henry Meyers / Old Man Tom / Vincent, озвучка), Тайлер Николь☆Tyler Nicol (Max, озвучка), Лорен Бассон☆Lauren Basson (Twitch, озвучка)


Описание: Смешные шалости и хулиганские проказы пиксиков, волшебных эльфов, которые обычно живут глубоко под землей, перевернули жизнь обычного парня Джо Бека вверх дном.
Рейтинг MPAA: Рекомендуется присутствие родителей



Качество: WEB-DL 720p
Формат: MKV
Видео кодек: AVC
Аудио кодек: AC3
Видео: 1280x720 (16:9), 24.000 fps, High@L3.1, 3 900 Kbps
Аудио #1: Rus AC3, 384 Kbps, 48.0 KHz, 6 ch
Аудио #2: Eng AC3, 192 Kbps, 48.0 KHz, 2 ch
General
Unique ID : 192564277666336853375360288793780929454 (0x90DE87E64A1FD32D953F890EE079C3AE)
Complete name : Pixies.2015.D.WEB-DL.720p.mkv
Format : Matroska
Format version : Version 4 / Version 2
File size : 2.47 GiB
Duration : 1h 17mn
Overall bit rate : 4 566 Kbps
Encoded date : UTC 2015-11-27 06:10:34
Writing application : mkvmerge v6.8.0 ('Theme for Great Cities') 64bit built on Mar 2 2014 21:34:26
Writing library : libebml v1.3.0 + libmatroska v1.4.1

Video
ID : 1
Format : AVC
Format/Info : Advanced Video Codec
Format profile : High@L3.1
Format settings, CABAC : No
Format settings, ReFrames : 2 frames
Codec ID : V_MPEG4/ISO/AVC
Duration : 1h 17mn
Bit rate : 3 900 Kbps
Width : 1 280 pixels
Height : 720 pixels
Display aspect ratio : 16:9
Frame rate mode : Constant
Frame rate : 24.000 fps
Color space : YUV
Chroma subsampling : 4:2:0
Bit depth : 8 bits
Scan type : Progressive
Bits/(Pixel*Frame) : 0.176
Stream size : 2.11 GiB (85%)
Language : English
Default : Yes
Forced : No
Color primaries : BT.709
Transfer characteristics : BT.709
Matrix coefficients : BT.709

Audio #1
ID : 2
Format : AC-3
Format/Info : Audio Coding 3
Mode extension : CM (complete main)
Format settings, Endianness : Big
Codec ID : A_AC3
Duration : 1h 17mn
Bit rate mode : Constant
Bit rate : 384 Kbps
Channel(s) : 6 channels
Channel positions : Front: L C R, Side: L R, LFE
Sampling rate : 48.0 KHz
Bit depth : 16 bits
Compression mode : Lossy
Stream size : 213 MiB (8%)
Language : Russian
Default : Yes
Forced : No

Audio #2
ID : 3
Format : AC-3
Format/Info : Audio Coding 3
Mode extension : CM (complete main)
Format settings, Endianness : Big
Codec ID : A_AC3
Duration : 1h 17mn
Bit rate mode : Constant
Bit rate : 192 Kbps
Channel(s) : 2 channels
Channel positions : Front: L R
Sampling rate : 48.0 KHz
Bit depth : 16 bits
Compression mode : Lossy
Stream size : 106 MiB (4%)
Language : English
Default : No
Forced : No

Menu
00:00:00.000 : en:Глава 1
00:06:04.000 : en:Глава 2
00:13:36.000 : en:Глава 3
00:21:32.000 : en:Глава 4
00:29:20.000 : en:Глава 5
00:35:21.000 : en:Глава 6
00:42:01.000 : en:Глава 7
00:50:22.000 : en:Глава 8
00:57:54.000 : en:Глава 9
01:03:50.000 : en:Глава 10
01:09:39.000 : en:Глава 11
info [Профиль]  [ЛС] 

ThunderDooM

Пол: Пол:Муж

Стаж: 7 лет 5 месяцев

Сообщений: 580

Рейтинг

post 28-Ноя-2015 16:07 (спустя 22 часа) [-]1[+]

[Цитировать] 

BZzz писал(а):

Приключения Пикси
Фу..блин... показалось...

_________________
Никогда не бойся делать то, что ты не умеешь. Ковчег был сооружен любителем. Профессионалы построили "Титаник".
info [Профиль]  [ЛС] 

Ян

Пол: Пол:Муж

Стаж: 5 лет 2 месяца

Сообщений: 330

Россия
Рейтинг

post 15-Дек-2015 10:48 (спустя 16 дней) [-]0[+]

[Цитировать] 

Ахахаха Аналогично!! XD

_________________
info [Профиль]  [ЛС] 

putinpe

Пол: Пол:Муж

Стаж: 4 года 10 месяцев

Сообщений: 48

Россия
Рейтинг

post 15-Дек-2015 20:48 (спустя 10 часов) [-]0[+]

[Цитировать] 

Я уже хотел скачать. Потом правильно прочитал
info [Профиль]  [ЛС] 

post 06-Фев-2016 12:09 (спустя 1 месяц 21 день) [-]0[+]

Топик был перенесен из форума Новинки 2014-2015 (Web-DL, DVD, HD DVD, Blu-ray, HD Rips) в форум Мультфильмы (HD Video)

LyaKich
 
Показать сообщения:    
Ответить на тему

Текущее время: 07-Дек 01:58

Часовой пояс: GMT + 4



Вы не можете начинать темы
Вы не можете отвечать на сообщения
Вы не можете редактировать свои сообщения
Вы не можете удалять свои сообщения
Вы не можете голосовать в опросах
Вы не можете прикреплять файлы к сообщениям
Вы не можете скачивать файлы