Ошибка

Криминальный квартет (Александр Муратов) [1989 г., Боевик, криминал, DVDRip-AVC]

Ответить на тему
 
Автор Сообщение

veteran1

Пол: Пол:Муж

Стаж: 4 года 11 месяцев

Сообщений: 142

Белоруссия
Рейтинг

post 14-Ноя-2015 15:19 3[+]

[Цитировать] 

Криминальный квартет

Год выпуска: 1989
Жанр: Боевик, криминал
Продолжительность: 01:24:22
Язык субтитров: отсутствуют

Режиссер:
  • Александр Муратов


В ролях:
  • Николай Караченцов, Владимир Стеклов, Борис Щербаков, Владимир Ерёмин, Неле Савиченко-Климене, Иван Мурадханов, Вадим Спиридонов, Игорь Ясулович, Семён Фарада, Вадим Яковлев, Борис Клюев, Алексей Шейнин, Юрий Катин-Ярцев, Юрий Гусев, Софья Горшкова


Описание: Следователь обнаруживает на торговой базе крупную партию бракованной обуви и заводит по этому поводу дело. Внезапно у него пропадает сын. Вскоре раздается звонок. Похитители требуют, чтобы он закрыл дело, если хочет увидеть своего сына живым…
Герой рассказывает об этом своим друзьям: двум оперативникам и журналисту. Они дружат еще с детского дома и готовы ради товарища пойти на все…

Автор рипа: veteran1

Качество: DVDRip-AVC
Формат: MKV
Видео кодек: H.264
Аудио кодек: AC3
Видео: 720x528, 25 fps, ~1867 kbps, 0.196 bit/pixel
Аудио: 48 kHz, AC3 6 ch, ~448.00 kbps

Код:

Общее
Уникальный идентификатор         : 179686717648513802850907004062753973211 (0x872E672BD8AC9374AD352235169163DB)
Полное имя                       : D:\Films\Фильмы\Криминальный.квартет.1989.DVDRip-AVC.by.veteran1.mkv
Формат                           : Matroska
Версия формата                   : Version 2
Размер файла                     : 1,37 Гбайт
Продолжительность                : 1 ч. 24 м.
Общий поток                      : 2316 Кбит/сек
Дата кодирования                 : UTC 2013-08-12 22:24:25
Программа кодирования            : mkvmerge v5.7.0 ('The Whirlwind') built on Jul  8 2012 20:08:51
Библиотека кодирования           : libebml v1.2.3 + libmatroska v1.3.0

Видео
Идентификатор                    : 1
Формат                           : AVC
Формат/Информация                : Advanced Video Codec
Профиль формата                  : High@L3.1
Параметр CABAC формата           : Да
Параметр ReFrames формата        : 8 кадров
Идентификатор кодека             : V_MPEG4/ISO/AVC
Продолжительность                : 1 ч. 24 м.
Битрейт                          : 1867 Кбит/сек
Ширина                           : 720 пикс.
Высота                           : 528 пикс.
Соотношение сторон               : 4:3
Частота кадров                   : 25,000 кадр/сек
Цветовое пространство            : YUV
Подвыборка цветности             : 4:2:0
Битовая глубина                  : 8 бит
Тип развёртки                    : Прогрессивная
Бит/(Пиксели*Кадры)              : 0.196
Размер потока                    : 1,07 Гбайт (79%)
Библиотека кодирования           : x264 core 125 r2200 999b753
Настройки программы              : cabac=1 / ref=8 / deblock=1:-1:-1 / analyse=0x3:0x113 / me=umh / subme=7 / psy=1 / psy_rd=1.00:0.15 / mixed_ref=1 / me_range=16 / chroma_me=1 / trellis=1 / 8x8dct=1 / cqm=0 / deadzone=21,11 / fast_pskip=1 / chroma_qp_offset=-3 / threads=3 / lookahead_threads=1 / sliced_threads=0 / nr=0 / decimate=1 / interlaced=0 / bluray_compat=0 / constrained_intra=0 / bframes=3 / b_pyramid=2 / b_adapt=1 / b_bias=0 / direct=1 / weightb=1 / open_gop=0 / weightp=2 / keyint=250 / keyint_min=25 / scenecut=40 / intra_refresh=0 / rc_lookahead=40 / rc=2pass / mbtree=1 / bitrate=1867 / ratetol=1.0 / qcomp=0.60 / qpmin=10 / qpmax=51 / qpstep=4 / cplxblur=20.0 / qblur=0.5 / ip_ratio=1.40 / aq=1:1.00
Язык                             : English

Аудио
Идентификатор                    : 2
Формат                           : AC-3
Формат/Информация                : Audio Coding 3
Расширение режима                : CM (complete main)
Идентификатор кодека             : A_AC3
Продолжительность                : 1 ч. 24 м.
Вид битрейта                     : Постоянный
Битрейт                          : 448 Кбит/сек
Каналы                           : 6 каналов
Расположение каналов             : Front: L C R, Side: L R, LFE
Частота                          : 48,0 КГц
Битовая глубина                  : 16 бит
Метод сжатия                     : С потерями
Размер потока                    : 270 Мбайт (19%)
info [Профиль]  [ЛС] 

Shakaaho

Пол: Пол:Муж

Стаж: 2 года 5 месяцев

Сообщений: 799

Предупреждений: 3

Россия
Рейтинг

post 14-Ноя-2015 17:33 (спустя 2 часа 13 минут) [-]0[+]

[Цитировать] 

Помню, смотрел давно. Хороший сюжет.
info [Профиль]  [ЛС] 

Mihrj

Пол: Пол:Муж

Стаж: 7 лет 8 месяцев

Сообщений: 98

Россия
Рейтинг

post 14-Ноя-2015 23:06 (спустя 5 часов) [-]0[+]

[Цитировать] 

У меня до сих пор на кассете этот фильм есть Улыбаюсь)
info [Профиль]  [ЛС] 
Показать сообщения:    
Ответить на тему

Текущее время: 08-Дек 18:26

Часовой пояс: GMT + 4



Вы не можете начинать темы
Вы не можете отвечать на сообщения
Вы не можете редактировать свои сообщения
Вы не можете удалять свои сообщения
Вы не можете голосовать в опросах
Вы не можете прикреплять файлы к сообщениям
Вы не можете скачивать файлы