Ошибка

Муравей Антц / Antz (Эрик Дарнелл, Тим Джонсон) [1998 г., Приключения, комедия, семейный, DVDRip]

Ответить на тему
 
Автор Сообщение

markfiter

Пол: Пол:Муж

Стаж: 4 года 11 месяцев

Сообщений: 2729

Германия
Рейтинг

post 13-Ноя-2015 20:31 0[+]

[Цитировать] 

Муравей Антц / Antz

Год выпуска: 1998
Страна: США
Жанр: Приключения, комедия, семейный
Продолжительность: 01:19:31
Перевод: Профессиональный (многоголосый, закадровый)

Режиссеры: Эрик Дарнелл, Тим Джонсон

В ролях: Вуди Аллен, Шэрон Стоун, Сильвестр Сталлоне, Дженнифер Лопез, Джин Хэкмэн, Энн Бэнкрофт, Кристофер Уокен, Дэн Эйкройд, Дэнни Гловер

Описание: Маленький, но очень умный муравей-рабочий Антц убеждён, что жизнь у него не складывается. И неизвестно, чем бы всё кончилось, если бы ему не посчастливилось повстречать муравьиную принцессу Балу. По уши влюбившийся Антц, убеждает своего приятеля муравья-солдата дать ему шанс увидеть принцессу, поменявшись с ним местами на военном параде.
Невинная шалость внезапно принимает неожиданный оборот. Приняв Антца за солдата , его направляют на битву с термитами. Пройдя горнило муравьиных войн, маленький Антц, прихватив Балу, отправляется на поиски недосягаемого рая насекомых — Инсектопии. Однако на его пути возникает безжалостный генерал Мэндибл, вынашивающий зловещие планы по ликвидации всей муравьиной колонии. Но работяга Антц — малый не промах. Он, с помощью своих друзей, спасает родной муравейник и становится настоящим муравьиным героем!

Качество: DVDRip
Формат: AVI
Видео кодек: XviD
Аудио кодек: AC3
Видео: 720x400, 25 fps, XviD MPEG-4 ~2003 kbps avg, 0.28 bit/pixel
Аудио: 48 kHz, AC3 Dolby Digital, 3/2 (L,C,R,l,r) + LFE ch, ~448.00 kbps avg

Код:

Общее
Формат                                   : AVI
Формат/Информация                        : Audio Video Interleave
Размер файла                             : 1,37 Гбайт
Продолжительность                        : 1 ч. 19 м.
Общий поток                              : 2462 Кбит/сек
Программа кодирования                    : VirtualDubMod 1.5.10.2 (build 2540/release)
Библиотека кодирования                   : VirtualDubMod build 2540/release

Видео
Идентификатор                            : 0
Формат                                   : MPEG-4 Visual
Профиль формата                          : Advanced Simple@L5
Параметр BVOP формата                    : 1
Параметр QPel формата                    : Нет
Параметр GMC формата                     : Без точки перехода
Параметр матрицы формата                 : Default (MPEG)
Режим смешивания                         : Сжатый битовый поток
Идентификатор кодека                     : XVID
Идентификатор кодека/Подсказка           : XviD
Продолжительность                        : 1 ч. 19 м.
Битрейт                                  : 2004 Кбит/сек
Ширина                                   : 720 пикселей
Высота                                   : 400 пикселей
Соотношение сторон                       : 16:9
Частота кадров                           : 25,000 кадров/сек
Цветовое пространство                    : YUV
Субдискретизация насыщенности            : 4:2:0
Битовая глубина                          : 8 бит
Тип развёртки                            : Прогрессивная
Метод сжатия                             : С потерями
Бит/(Пиксели*Кадры)                      : 0.278
Размер потока                            : 1,11 Гбайт (81%)
Библиотека кодирования                   : XviD 1.2.1 (UTC 2008-12-04)

Аудио
Идентификатор                            : 1
Формат                                   : AC-3
Формат/Информация                        : Audio Coding 3
Расширение режима                        : CM (complete main)
Параметр Endianness формата              : Big
Идентификатор кодека                     : 2000
Продолжительность                        : 1 ч. 19 м.
Вид битрейта                             : Постоянный
Битрейт                                  : 448 Кбит/сек
Каналы                                   : 6 каналов
Расположение каналов                     : Front: L C R, Side: L R, LFE
Частота                                  : 48,0 КГц
Метод сжатия                             : С потерями
Размер потока                            : 255 Мбайт (18%)
Выравнивание                             : Разделение по промежуткам
Продолжительность промежутка             : 40  мс. (1,00 видеокадр)
Время предзагрузки промежутка            : 500  мс.
info [Профиль]  [ЛС] 
Показать сообщения:    
Ответить на тему

Текущее время: 08-Дек 13:59

Часовой пояс: GMT + 4



Вы не можете начинать темы
Вы не можете отвечать на сообщения
Вы не можете редактировать свои сообщения
Вы не можете удалять свои сообщения
Вы не можете голосовать в опросах
Вы не можете прикреплять файлы к сообщениям
Вы не можете скачивать файлы