Ошибка

Миньоны / Minions (Кайл Балда, Пьер Коффан / Kyle Balda, Pierre Coffin) [2015, Мультфильм, Комедия, Семейный, BDRip 1080p 3D] Half OverUnder / Вертикальная анаморфная стереопара

Ответить на тему
 
Автор Сообщение

dimil

Пол: Пол:Муж

Стаж: 5 лет 5 месяцев

Сообщений: 128

Украина
Рейтинг

post 08-Ноя-2015 15:54 0[+]

[Цитировать] 


Миньоны
Minions

Год выпуска: 2015
Страна: CША (Universal Pictures, Illumination Entertainment)
Жанр: Мультфильм, Комедия, Семейный
Продолжительность: 01:30:57
Перевод: Профессиональный (дублированный) - Цифровая лицензия iTunes
Субтитры:
Внешние (SRT ANSI): Английские SDH
Режиссеры: Кайл Балда, Пьер Коффан / Kyle Balda, Pierre Coffin
Доп. инфо: Смотреть и после финальных титров.
Роли озвучивали (дублировали):
Scarlet Overkill - Сандра Буллок (Алена Фалалеева)
Herb Overkill - Джон Хэмм (Сергей Смирнов)
Walter Nelson - Майкл Китон (Игорь Старосельцев)
Madge Nelson - Эллисон Дженни (Алёна Ивченко)
Professor Flux / Tower Guard - Стив Куган (Олег Форостенко, Алексей Колган)
The Queen - Дженнифер Сондерс (Ирина Маликова)
Рассказчик - Джеффри Раш (Борис Клюев)
Молодой Грю - Стив Карелл (Сергей Бурунов)
Миньоны - Пьер Коффан
Tina - Кэти Миксон (Наталья Терешкова)
VNC Announcer / Walter Jr. - Майкл Битти
Sumo Villain - Хироюки Санада (Алексей Колган)
Fabrice - Дэйв Розенбаум (Даниил Эльдаров)

Описание
Миньоны живут на планете гораздо дольше нас. У них одна навязчивая идея — служить самой Гадкой личности из имеющихся в наличии. Динозавры, фараоны, Дракула, Наполеон — все они оказались недолговечны. И тогда миньоны рванули в Нью-Йорк. Их ждут деньги, власть, роковая суперзлодейка Скарлет Оверкилл и, конечно же, вкуснейшая «банана»! Во всяком случае, так им кажется.
Премьера: 11 июня 2015 (9 июля 2015)
Бюджет: $74 000 000
Кассовые сборы: $1 153 190 000


Качество: BDRip 1080p 3D
Формат: MKV
Формат 3D: Half OverUnder / Вертикальная анаморфная стереопара
Порядок ракурсов: левый ракурс первый
Видео кодек: x264
Аудио кодек: AC3
Видео: AVC / 23,976 fps / 1920х1080p / ~15.5 Mbps
Аудио:
#1 - Русский / AC3 / 48 KHz / 5.1 ch / 384 Kbps (Дубляж - Цифровая лицензия iTunes)
#2 - Английский / AC3 / 48 KHz / 5.1 ch / 640 Kbps (Original - BD 3D)
•Соло, которое играет Стюарт на новой электрогитаре в конце мультфильма — это композиция Эдварда Ван Халена «Eruption».
•Во время сцены со сказкой на ночь на фоне играет произведение Сергея Прокофьева «Петя и волк».
•Это первый фильм, в котором Сандра Буллок изображает злодейку.
•Режиссер Пьер Коффан озвучил всех 899 миньонов.
•Мировые сборы «Миньонов» превысили один миллиард долларов. Таким образом, Universal стала первой в истории студией, у которой сразу три фильма за один год покорили эту отметку. Другие два фильма — это «Форсаж 7» (2015) и «Мир Юрского периода» (2015).
•Корону Британской империи, которую носит Боб во время сцены «коронации», можно также увидеть и в фильме «Гадкий я» (2010), когда все миньоны предлагают сокровища, чтобы помочь Грю осуществить кражу Луны.
•События фильма разворачиваются в 1968 году и в сцене, где миньоны пытаются попасть в Лондонский Тауэр, можно заметить, что в Англии уже используют десятичную денежную систему, хотя она была принята лишь в 1971 году.
•В фильме можно заметить красный пожарный гидрант в американском стиле. Таких гидрантов не было в Великобритании.

General
Unique ID : 202770975837615967510019417948783248578 (0x988C44F8D4365994ABD768B6FA1604C2)
Complete name : D:\Фильмы\Minions(2015)3D-halfOU(Ash61)iTunes\Minions(2015)3D-halfOU(Ash61)iTunes.mkv
Format : Matroska
Format version : Version 2
File size : 10.7 GiB
Duration : 1h 30mn
Overall bit rate : 16.9 Mbps
Movie name : Миньоны / Minions (2015) в 3Д
Encoded date : UTC 2015-10-24 21:16:09
Writing application : mkvmerge v5.8.0 ('No Sleep / Pillow') built on Sep 2 2012 15:37:04
Writing library : libebml v1.2.3 + libmatroska v1.3.0

Video
ID : 1
Format : AVC
Format/Info : Advanced Video Codec
Format profile : High@L4.1
Format settings, CABAC : Yes
Format settings, ReFrames : 4 frames
Codec ID : V_MPEG4/ISO/AVC
Duration : 1h 30mn
Bit rate : 15.5 Mbps
Width : 1 920 pixels
Height : 1 080 pixels
Display aspect ratio : 16:9
Frame rate : 23.976 fps
Color space : YUV
Chroma subsampling : 4:2:0
Bit depth : 8 bits
Scan type : Progressive
Bits/(Pixel*Frame) : 0.312
Stream size : 9.86 GiB (92%)
Title : BDRip by Ash61
Writing library : x264 core 146 r2538 121396c
Encoding settings : cabac=1 / ref=4 / deblock=1:-3:-3 / analyse=0x3:0x113 / me=umh / subme=10 / psy=1 / psy_rd=1.00:0.00 / mixed_ref=1 / me_range=32 / chroma_me=1 / trellis=2 / 8x8dct=1 / cqm=0 / deadzone=21,11 / fast_pskip=1 / chroma_qp_offset=-2 / threads=12 / lookahead_threads=3 / sliced_threads=0 / nr=0 / decimate=1 / interlaced=0 / bluray_compat=0 / constrained_intra=0 / bframes=10 / b_pyramid=2 / b_adapt=2 / b_bias=0 / direct=3 / weightb=1 / open_gop=0 / weightp=2 / keyint=250 / keyint_min=23 / scenecut=40 / intra_refresh=0 / rc_lookahead=60 / rc=crf / mbtree=1 / crf=16.0 / qcomp=0.70 / qpmin=0 / qpmax=69 / qpstep=4 / vbv_maxrate=40000 / vbv_bufsize=30000 / crf_max=0.0 / nal_hrd=none / filler=0 / frame-packing=4 / ip_ratio=1.40 / aq=1:0.70
Language : English
Default : Yes
Forced : No

Audio #1
ID : 2
Format : AC-3
Format/Info : Audio Coding 3
Mode extension : CM (complete main)
Codec ID : A_AC3
Duration : 1h 30mn
Bit rate mode : Constant
Bit rate : 384 Kbps
Channel(s) : 6 channels
Channel positions : Front: L C R, Side: L R, LFE
Sampling rate : 48.0 KHz
Bit depth : 16 bits
Compression mode : Lossy
Stream size : 250 MiB (2%)
Title : Дубляж - iTunes
Language : Russian
Default : Yes
Forced : No

Audio #2
ID : 3
Format : AC-3
Format/Info : Audio Coding 3
Mode extension : CM (complete main)
Codec ID : A_AC3
Duration : 1h 30mn
Bit rate mode : Constant
Bit rate : 640 Kbps
Channel(s) : 6 channels
Channel positions : Front: L C R, Side: L R, LFE
Sampling rate : 48.0 KHz
Bit depth : 16 bits
Compression mode : Lossy
Stream size : 416 MiB (4%)
Title : Original - BD 3D
Language : English
Default : No
Forced : No

Menu
00:00:00.000 : :1
00:05:39.838 : :2
00:11:28.937 : :3
00:16:55.139 : :4
00:22:28.430 : :5
00:26:59.034 : :6
00:32:54.638 : :7
00:37:28.871 : :8
00:40:58.831 : :9
00:45:29.309 : :10
00:49:24.085 : :11
00:53:43.052 : :12
00:57:04.920 : :13
01:01:36.943 : :14
01:05:54.699 : :15
01:07:55.237 : :16
01:11:19.149 : :17
01:15:32.653 : :18
01:21:12.826 : :19
01:28:24.756 : :20
info [Профиль]  [ЛС] 

post 08-Ноя-2015 15:58 (спустя 3 минуты) [-]0[+]

Топик был перенесен из форума 3D в форум Новинки (3D)

BZzz
 

post 03-Фев-2016 01:03 (спустя 2 месяца 24 дня) [-]0[+]

Топик был перенесен из форума Новинки (3D) в форум 3D

BZzz
 
Показать сообщения:    
Ответить на тему

Текущее время: 05-Дек 08:30

Часовой пояс: GMT + 4



Вы не можете начинать темы
Вы не можете отвечать на сообщения
Вы не можете редактировать свои сообщения
Вы не можете удалять свои сообщения
Вы не можете голосовать в опросах
Вы не можете прикреплять файлы к сообщениям
Вы не можете скачивать файлы