Ошибка

Круши Кромсай / Kill la Kill (TV) [1-24 из 24 + OVA] [2013] [приключения, комедия, фэнтези, этти] [BDRip] [1080p] [Любительский]

Ответить на тему
 
Автор Сообщение

Chel90RUS

Пол: Пол:Муж

Стаж: 5 лет 5 месяцев

Сообщений: 413

Россия
Рейтинг

post 08-Ноя-2015 13:22 2[+]

[Цитировать] 

pic="http://static3.anidub.com/online/poster/58891f77ce.jpg"
Круши Кромсай
Kill la Kill / キルラキル


Год выпуска: 2013
Жанр: приключения, комедия, фэнтези, этти
Страна: Япония
Тип: BDRip
Продолжительность: 24 серий ~ 25 мин + OVA ~ 25 мин
Дата выпуска: c 04.10.2013 по 28.03.2014
Режиссер: Имайси Хироюки
Автор оригинала / Сценарист: Накасима Кадзуки
Озвучено: Сuba77, Trina_D
Перевод: Jeka
Студия: Trigger
Формат файла: MKV
Аудио: AC3, стерео, 192 Kbps, 48.0 KHz
Видео: AVC, 1920x1080, 23.976 fps, 17.3 Mbps, 16:9
General
Unique ID : 188560887281288936483684430734959242923 (0x8DDB8183AE0EFCD9880340FEE146EEAB)
Complete name : \[AniDub]_Kill_la_Kill_[01]_[BDRip_1920x1080_x264_Ac3]_[TrinaD_Cuba77].mkv
Format : Matroska
Format version : Version 4 / Version 2
File size : 3.04 GiB
Duration : 24mn 28s
Overall bit rate : 17.8 Mbps
Encoded date : UTC 2015-11-07 12:24:38
Writing application : mkvmerge v8.5.2 ('Crosses') 64bit
Writing library : libebml v1.3.3 + libmatroska v1.4.4
DURATION : 00:24:28.672000000
NUMBER_OF_FRAMES : 45896
NUMBER_OF_BYTES : 35248128
_STATISTICS_WRITING_APP : mkvmerge v8.5.2 ('Crosses') 64bit
_STATISTICS_WRITING_DATE_UTC : 2015-11-07 12:24:38
_STATISTICS_TAGS : BPS DURATION NUMBER_OF_FRAMES NUMBER_OF_BYTES

Video
ID : 1
Format : AVC
Format/Info : Advanced Video Codec
Format profile : High 10@L5
Format settings, CABAC : Yes
Format settings, ReFrames : 4 frames
Codec ID : V_MPEG4/ISO/AVC
Duration : 24mn 28s
Bit rate : 17.3 Mbps
Width : 1 920 pixels
Height : 1 080 pixels
Display aspect ratio : 16:9
Frame rate mode : Constant
Frame rate : 23.976 fps
Color space : YUV
Chroma subsampling : 4:2:0
Bit depth : 10 bits
Scan type : Progressive
Bits/(Pixel*Frame) : 0.347
Stream size : 2.95 GiB (97%)
Title : BDRip by DJATOM
Writing library : x264 core 135 r2345 f0c1c53
Encoding settings : cabac=1 / ref=4 / deblock=1:1:-1 / analyse=0x3:0x113 / me=umh / subme=9 / psy=1 / psy_rd=1.00:0.00 / mixed_ref=1 / me_range=32 / chroma_me=1 / trellis=2 / 8x8dct=1 / cqm=0 / deadzone=21,11 / fast_pskip=1 / chroma_qp_offset=-2 / threads=6 / lookahead_threads=1 / sliced_threads=0 / nr=0 / decimate=1 / interlaced=0 / bluray_compat=0 / constrained_intra=0 / bframes=9 / b_pyramid=2 / b_adapt=2 / b_bias=0 / direct=1 / weightb=1 / open_gop=0 / weightp=2 / keyint=240 / keyint_min=24 / scenecut=40 / intra_refresh=0 / rc=crf / mbtree=0 / crf=16.0 / qcomp=0.72 / qpmin=0 / qpmax=81 / qpstep=4 / ip_ratio=1.40 / pb_ratio=1.30 / aq=1:0.85
Language : Japanese
Default : Yes
Forced : No
Color range : Limited
Color primaries : BT.709
Transfer characteristics : BT.709
Matrix coefficients : BT.709

Audio
ID : 2
Format : AC-3
Format/Info : Audio Coding 3
Mode extension : CM (complete main)
Format settings, Endianness : Big
Codec ID : A_AC3
Duration : 24mn 28s
Bit rate mode : Constant
Bit rate : 192 Kbps
Channel(s) : 2 channels
Channel positions : Front: L R
Sampling rate : 48.0 KHz
Bit depth : 16 bits
Compression mode : Lossy
Stream size : 33.6 MiB (1%)
Language : Russian
Default : Yes
Forced : No

Описание: Академия Хоннодзи - обычная такая школа, только с углубленным изучением мордобоя. Ученикам здесь приходится не только книжки читать, да уравнения решать, а еще и учиться крушить все вокруг и кромсать всех кто под руку подвернется! Глава студсовета академии жутко стервозная госпожа Сацки лично дарует форму Гоку, во сто крат увеличивающую физические возможности хозяина, лишь тем кто по ее мнению наиболее достоин. Человек в форме Гоку фактически непобедим перед лицом простых смертных хомячков. А вот у новенькой переведённой ученицы, Матой Рюко, есть половина громадных таких ножниц, заточенных как раз кромсать этот крутопонтовый шмот. Ей не хватает лишь соответствующей одёжки, которую она таки найдет!
Это первая раздача BDRip1080p
В неё включены 24 серии сериала и ОВА
http://tapochek.net/viewtopic.php?t=155792 - здесь только ОВА 720р
http://tapochek.net/viewtopic.php?t=148798 - здесь только сериал 720р
info [Профиль]  [ЛС] 

Ritsu

Пол: Пол:Муж

Стаж: 5 лет 5 месяцев

Сообщений: 856

Австралия
Рейтинг

post 08-Ноя-2015 17:10 (спустя 3 часа) [-]0[+]

[Цитировать] 

У этой раздачи, полагаю, сабов и оригинальной дорожки нет? :С

_________________
Флудите вместе с Рицу и будет вам счастье! ^__^

"...Зажжем рок в этой дыре!.."
info [Профиль]  [ЛС] 

Chel90RUS

Пол: Пол:Муж

Стаж: 5 лет 5 месяцев

Сообщений: 413

Россия
Рейтинг

post 08-Ноя-2015 17:44 (спустя 33 минуты) [-]1[+]

[Цитировать] 

Ritsu писал(а):

У этой раздачи, полагаю, сабов и оригинальной дорожки нет? :С
Отвлекаться на чтение во время просмотра не хочу и японский не понимаю
В других раздачах должны быть и сабы и дорожки

_________________
info [Профиль]  [ЛС] 

Ritsu

Пол: Пол:Муж

Стаж: 5 лет 5 месяцев

Сообщений: 856

Австралия
Рейтинг

post 08-Ноя-2015 18:28 (спустя 43 минуты) [-]1[+]

[Цитировать] 

Chel90RUS писал(а):

Отвлекаться на чтение во время просмотра не хочу и японский не понимаю
Так-то, зачастую, я тоже смотрю с озвучкой, но тут дабберам тяжело было бы передать все эти крики.

Во всяком случае, спасибо за раздачу.

_________________
Флудите вместе с Рицу и будет вам счастье! ^__^

"...Зажжем рок в этой дыре!.."
info [Профиль]  [ЛС] 

Choppers

Пол: Пол:Муж

Стаж: 5 лет 5 месяцев

Сообщений: 31

Россия
Рейтинг

post 09-Ноя-2015 00:43 (спустя 6 часов) [-]0[+]

[Цитировать] 

чисто посмотреть можно скачать, ничего нового не будет)
info [Профиль]  [ЛС] 
Показать сообщения:    
Ответить на тему

Текущее время: 09-Дек 06:04

Часовой пояс: GMT + 4



Вы не можете начинать темы
Вы не можете отвечать на сообщения
Вы не можете редактировать свои сообщения
Вы не можете удалять свои сообщения
Вы не можете голосовать в опросах
Вы не можете прикреплять файлы к сообщениям
Вы не можете скачивать файлы