Ошибка

Новый завет Владыки тьмы, моей сестры / Shinmai Maou no Testament (TV-1) [1-12 + OAD из 12 + OAD] [2015] [комедия, этти, мистика, романтика, школа] [BDRip] [1080p] [Любительский]

Ответить на тему
 
Автор Сообщение

Chel90RUS

Пол: Пол:Муж

Стаж: 5 лет 5 месяцев

Сообщений: 413

Россия
Рейтинг

post 30-Окт-2015 02:17 1[+]

[Цитировать] 

pic="http://static2.anidub.com/tracker/poster/39ce52c598.jpg"
Новый завет Владыки тьмы, моей сестры
Shinmai Maou no Testament / 新妹魔王の契約者[テスタメント]


Год выпуска: 2015
Жанр: комедия, этти, мистика, романтика, школа
Страна: Япония
Тип: BDRip
Продолжительность: 12 серий ~ 25 мин + OAD ~ 25 мин
Дата выпуска: c 08.01.2015 по 26.03.2015
Режиссер: Сайто Хисаси
Автор оригинала / Сценарист: Уэсу Тэцуто
Озвучено: Ancord, Nika Lenina
Перевод: FooBoo
Тайминг и работа со звуком: Sakuragi_R
Студия: Production IMS
Формат файла: MKV
Аудио: AC3, стерео, 192 Kbps, 48.0 KHz
Видео: AVC, 1920x1080, 23.976 fps, 9 597 Kbps, 16:9
General
Unique ID : 213769494734441633162806397435207945962 (0xA0D281D1FF62A77B9282D18251430EEA)
Complete name : \[AniDub]_Shinmai_Maou_no_Testament_[01]_[BDRip_1920x1080_x264_Ac3]_[Ancord_NikaLenina].mkv
Format : Matroska
Format version : Version 4 / Version 2
File size : 1.76 GiB
Duration : 25mn 12s
Overall bit rate : 9 988 Kbps
Movie name : [ReinForce] Shinmai Maou no Testament - 01 (BDRip 1920x1080 x264 FLAC)
Encoded date : UTC 2015-10-28 18:43:00
Writing application : mkvmerge v8.5.1 ('Where you lead I will follow') 64bit
Writing library : libebml v1.3.3 + libmatroska v1.4.4
DURATION : 00:25:12.192000000
NUMBER_OF_FRAMES : 47256
NUMBER_OF_BYTES : 36292608
_STATISTICS_WRITING_APP : mkvmerge v8.5.1 ('Where you lead I will follow') 64bit
_STATISTICS_WRITING_DATE_UTC : 2015-10-28 18:43:00
_STATISTICS_TAGS : BPS DURATION NUMBER_OF_FRAMES NUMBER_OF_BYTES

Video
ID : 1
Format : AVC
Format/Info : Advanced Video Codec
Format profile : High@L4
Format settings, CABAC : Yes
Format settings, ReFrames : 4 frames
Codec ID : V_MPEG4/ISO/AVC
Duration : 25mn 12s
Bit rate : 9 597 Kbps
Width : 1 920 pixels
Height : 1 080 pixels
Display aspect ratio : 16:9
Frame rate mode : Constant
Frame rate : 23.976 fps
Color space : YUV
Chroma subsampling : 4:2:0
Bit depth : 8 bits
Scan type : Progressive
Bits/(Pixel*Frame) : 0.193
Stream size : 1.69 GiB (96%)
Writing library : x264 core 142
Encoding settings : opencl=1 / cabac=1 / ref=4 / deblock=1:-2:-2 / analyse=0x3:0x113 / me=umh / subme=9 / psy=1 / psy_rd=0.70:0.00 / mixed_ref=0 / me_range=32 / chroma_me=1 / trellis=2 / 8x8dct=1 / cqm=0 / deadzone=21,11 / fast_pskip=1 / chroma_qp_offset=-2 / threads=8 / lookahead_threads=1 / sliced_threads=0 / nr=0 / decimate=1 / interlaced=0 / bluray_compat=0 / constrained_intra=0 / bframes=9 / b_pyramid=2 / b_adapt=2 / b_bias=0 / direct=3 / weightb=1 / open_gop=0 / weightp=2 / keyint=250 / keyint_min=23 / scenecut=40 / intra_refresh=0 / rc_lookahead=40 / rc=crf / mbtree=1 / crf=16.0 / qcomp=0.70 / qpmin=10 / qpmax=20 / qpstep=4 / ip_ratio=1.40 / aq=1:1.00
Default : Yes
Forced : No

Audio
ID : 2
Format : AC-3
Format/Info : Audio Coding 3
Mode extension : CM (complete main)
Format settings, Endianness : Big
Codec ID : A_AC3
Duration : 25mn 12s
Bit rate mode : Constant
Bit rate : 192 Kbps
Channel(s) : 2 channels
Channel positions : Front: L R
Sampling rate : 48.0 KHz
Bit depth : 16 bits
Compression mode : Lossy
Stream size : 34.6 MiB (2%)
Language : Russian
Default : Yes
Forced : Yes

Описание: "Эй, ты ведь хотел, чтобы у тебя была сестренка?" совершенно внезапно услышал от своего отца Тоджо Басара. И добавил к этому, что решил еще раз жениться.
Мало того, спустя всего пару дней отец берет и уезжает за границу оставив его одного с двумя миленькими сестрёнками. Но к радости или беде эти две миленькие девушки оказываются не совсем обычными...как и сам Басара с его отцом.

1. Здесь НЕТУ ЦЕНЗУРЫ (в наше время всё же есть нубы не знающие элементарных вещей касательно релизов в BD)
2. Дополнительные сцены здесь НЕ ОЗВУЧЕНЫ. Учитывая то, что в них происходит, здесь и без перевода будет всё ясно
Второй сезон тут
info [Профиль]  [ЛС] 

minimalzka

Пол: Пол:Муж

Стаж: 4 года 1 месяц

Сообщений: 260

Россия
Рейтинг

post 01-Ноя-2015 15:58 (спустя 2 дня 13 часов) [-]0[+]

[Цитировать] 

отл миниме =))

_________________
info [Профиль]  [ЛС] 

Chel90RUS

Пол: Пол:Муж

Стаж: 5 лет 5 месяцев

Сообщений: 413

Россия
Рейтинг

post 01-Ноя-2015 15:59 (спустя 1 минута) [-]0[+]

[Цитировать] 

minimalzka писал(а):

отл миниме =))
Что?

_________________
info [Профиль]  [ЛС] 
Показать сообщения:    
Ответить на тему

Текущее время: 09-Дек 15:41

Часовой пояс: GMT + 4



Вы не можете начинать темы
Вы не можете отвечать на сообщения
Вы не можете редактировать свои сообщения
Вы не можете удалять свои сообщения
Вы не можете голосовать в опросах
Вы не можете прикреплять файлы к сообщениям
Вы не можете скачивать файлы