Ошибка

Trubetskoy / Trubetskoy - Magister Bibendi

Ответить на тему
 
Автор Сообщение

SpoT

Пол: Пол:Муж

Стаж: 7 лет 7 месяцев

Сообщений: 5

Россия
Рейтинг

post 25-Окт-2015 15:10 0[+]

[Цитировать] 

Trubetskoy / Trubetskoy - Magister Bibendi

Жанр: Rock & Roll
Страна исполнителя (группы): Беларусь
Год издания: 2015
Аудиокодек: MP3
Тип рипа: tracks
Битрейт аудио: 320 kbps
Продолжительность: 00:35:15
Наличие сканов в содержимом раздачи: нет
Треклист:
01. Magister Bibendi
02. Ева и Адам
03. Лети
04. Капкан
05. Rock&Roll
06. Зiрниця
07. Девятый вал
08. Гэтым разам
09. Купала
10. На крестинах сатаны
11. Не пустят в рай
12. Стаканы
Trubetskoy — рок-группа из Минска, созданная бывшими участниками музыкальных коллективов Ляпис Трубецкой, Крамбамбуля и др. Как заявляют сами музыканты, они не хотят загонять себя в рамки каких-то музыкальных жанров и играют чистый рок-н-ролл, основанный на жестком гитарном звучании. Будучи правопреемником «ляписов», Trubetskoy исполняет как хиты из репертуара этой группы (в новых аранжировках), так и композиции собственного сочинения. Презентация дебютного альбома группы Trubetskoy запланирована на октябрь 2015 года.
Первый полноформатный альбом минской группы получил название "Magister Bibendi". По словам фронтмена коллектива, Павла Булатникова, пластинку составят абсолютно новые произведения. Музыкальную стилистику он обозначил как heavy dance music.
Павел Булатников — вокал (2014—настоящее время)
Руслан Владыко — гитара, клавишные, бэк-вокал (2014—настоящее время)
Алесь-Франтишек Мышкевич — бас-гитара, бэк-вокал (2014—настоящее время)
Александр Сторожук — ударные (2014—настоящее время)

Код:

Общее
Полное имя                               : E:\Музыка\2015 - Magister Bibendi\01 - Magister Bibendi.mp3
Формат                                   : MPEG Audio
Размер файла                             : 7,83 Мбайт
Продолжительность                        : 3 м. 19 с.
Режим общего битрейта                    : Постоянный
Общий поток                              : 320 Кбит/сек
Альбом                                   : Magister Bibendi
Альбом/Исполнитель                       : Trubetskoy
Часть/Положение                          : 1
Часть/Всего                              : 1
Трек                                     : Magister Bibendi
Трек/Положение                           : 1
Трек/Всего                               : 12
Исполнитель                              : Trubetskoy
Жанр                                     : Рок
Библиотека кодирования                   : LAME3.99
Обложка                                  : Yes
Тип обложки                              : Cover (front)
MIME-тип обложки                         : image/jpeg

Аудио
Формат                                   : MPEG Audio
Версия формата                           : Version 1
Профиль формата                          : Layer 3
Режим                                    : Joint stereo
Продолжительность                        : 3 м. 19 с.
Вид битрейта                             : Постоянный
Битрейт                                  : 320 Кбит/сек
Каналы                                   : 2 канала
Частота                                  : 44,1 КГц
Метод сжатия                             : С потерями
Размер потока                            : 7,60 Мбайт (97%)
Библиотека кодирования                   : LAME3.99
Настройки программы                      : -m j -V 4 -q 0 -lowpass 20.5

Общее
Полное имя                               : E:\Музыка\2015 - Magister Bibendi\02 - Ева и Адам.mp3
Формат                                   : MPEG Audio
Размер файла                             : 7,00 Мбайт
Продолжительность                        : 2 м. 57 с.
Режим общего битрейта                    : Постоянный
Общий поток                              : 320 Кбит/сек
Альбом                                   : Magister Bibendi
Альбом/Исполнитель                       : Trubetskoy
Часть/Положение                          : 1
Часть/Всего                              : 1
Трек                                     : Ева и Адам
Трек/Положение                           : 2
Трек/Всего                               : 12
Исполнитель                              : Trubetskoy
Жанр                                     : Рок
Библиотека кодирования                   : LAME3.99
Обложка                                  : Yes
Тип обложки                              : Cover (front)
MIME-тип обложки                         : image/jpeg

Аудио
Формат                                   : MPEG Audio
Версия формата                           : Version 1
Профиль формата                          : Layer 3
Режим                                    : Joint stereo
Расширение режима                        : MS Stereo
Продолжительность                        : 2 м. 57 с.
Вид битрейта                             : Постоянный
Битрейт                                  : 320 Кбит/сек
Каналы                                   : 2 канала
Частота                                  : 44,1 КГц
Метод сжатия                             : С потерями
Размер потока                            : 6,77 Мбайт (97%)
Библиотека кодирования                   : LAME3.99
Настройки программы                      : -m j -V 4 -q 0 -lowpass 20.5

Общее
Полное имя                               : E:\Музыка\2015 - Magister Bibendi\03 - Лети.mp3
Формат                                   : MPEG Audio
Размер файла                             : 6,27 Мбайт
Продолжительность                        : 2 м. 38 с.
Режим общего битрейта                    : Постоянный
Общий поток                              : 320 Кбит/сек
Альбом                                   : Magister Bibendi
Альбом/Исполнитель                       : Trubetskoy
Часть/Положение                          : 1
Часть/Всего                              : 1
Трек                                     : Лети
Трек/Положение                           : 3
Трек/Всего                               : 12
Исполнитель                              : Trubetskoy
Жанр                                     : Рок
Библиотека кодирования                   : LAME3.99
Обложка                                  : Yes
Тип обложки                              : Cover (front)
MIME-тип обложки                         : image/jpeg

Аудио
Формат                                   : MPEG Audio
Версия формата                           : Version 1
Профиль формата                          : Layer 3
Режим                                    : Joint stereo
Продолжительность                        : 2 м. 38 с.
Вид битрейта                             : Постоянный
Битрейт                                  : 320 Кбит/сек
Каналы                                   : 2 канала
Частота                                  : 44,1 КГц
Метод сжатия                             : С потерями
Размер потока                            : 6,04 Мбайт (96%)
Библиотека кодирования                   : LAME3.99
Настройки программы                      : -m j -V 4 -q 0 -lowpass 20.5

Общее
Полное имя                               : E:\Музыка\2015 - Magister Bibendi\04 - Капкан.mp3
Формат                                   : MPEG Audio
Размер файла                             : 7,70 Мбайт
Продолжительность                        : 3 м. 15 с.
Режим общего битрейта                    : Постоянный
Общий поток                              : 320 Кбит/сек
Альбом                                   : Magister Bibendi
Альбом/Исполнитель                       : Trubetskoy
Часть/Положение                          : 1
Часть/Всего                              : 1
Трек                                     : Капкан
Трек/Положение                           : 4
Трек/Всего                               : 12
Исполнитель                              : Trubetskoy
Жанр                                     : Рок
Библиотека кодирования                   : LAME3.99
Обложка                                  : Yes
Тип обложки                              : Cover (front)
MIME-тип обложки                         : image/jpeg

Аудио
Формат                                   : MPEG Audio
Версия формата                           : Version 1
Профиль формата                          : Layer 3
Режим                                    : Joint stereo
Продолжительность                        : 3 м. 16 с.
Вид битрейта                             : Постоянный
Битрейт                                  : 320 Кбит/сек
Каналы                                   : 2 канала
Частота                                  : 44,1 КГц
Метод сжатия                             : С потерями
Размер потока                            : 7,47 Мбайт (97%)
Библиотека кодирования                   : LAME3.99
Настройки программы                      : -m j -V 4 -q 0 -lowpass 20.5

Общее
Полное имя                               : E:\Музыка\2015 - Magister Bibendi\05 - Rock&Roll.mp3
Формат                                   : MPEG Audio
Размер файла                             : 6,60 Мбайт
Продолжительность                        : 2 м. 47 с.
Режим общего битрейта                    : Постоянный
Общий поток                              : 320 Кбит/сек
Альбом                                   : Magister Bibendi
Альбом/Исполнитель                       : Trubetskoy
Часть/Положение                          : 1
Часть/Всего                              : 1
Трек                                     : Rock&Roll
Трек/Положение                           : 5
Трек/Всего                               : 12
Исполнитель                              : Trubetskoy
Жанр                                     : Рок
Библиотека кодирования                   : LAME3.99
Обложка                                  : Yes
Тип обложки                              : Cover (front)
MIME-тип обложки                         : image/jpeg

Аудио
Формат                                   : MPEG Audio
Версия формата                           : Version 1
Профиль формата                          : Layer 3
Режим                                    : Joint stereo
Продолжительность                        : 2 м. 47 с.
Вид битрейта                             : Постоянный
Битрейт                                  : 320 Кбит/сек
Каналы                                   : 2 канала
Частота                                  : 44,1 КГц
Метод сжатия                             : С потерями
Размер потока                            : 6,37 Мбайт (97%)
Библиотека кодирования                   : LAME3.99
Настройки программы                      : -m j -V 4 -q 0 -lowpass 20.5

Общее
Полное имя                               : E:\Музыка\2015 - Magister Bibendi\06 - Зiрниця.mp3
Формат                                   : MPEG Audio
Размер файла                             : 6,36 Мбайт
Продолжительность                        : 2 м. 40 с.
Режим общего битрейта                    : Постоянный
Общий поток                              : 320 Кбит/сек
Альбом                                   : Magister Bibendi
Альбом/Исполнитель                       : Trubetskoy
Часть/Положение                          : 1
Часть/Всего                              : 1
Трек                                     : Зiрниця
Трек/Положение                           : 6
Трек/Всего                               : 12
Исполнитель                              : Trubetskoy
Жанр                                     : Рок
Библиотека кодирования                   : LAME3.99
Обложка                                  : Yes
Тип обложки                              : Cover (front)
MIME-тип обложки                         : image/jpeg

Аудио
Формат                                   : MPEG Audio
Версия формата                           : Version 1
Профиль формата                          : Layer 3
Режим                                    : Joint stereo
Расширение режима                        : MS Stereo
Продолжительность                        : 2 м. 40 с.
Вид битрейта                             : Постоянный
Битрейт                                  : 320 Кбит/сек
Каналы                                   : 2 канала
Частота                                  : 44,1 КГц
Метод сжатия                             : С потерями
Размер потока                            : 6,13 Мбайт (96%)
Библиотека кодирования                   : LAME3.99
Настройки программы                      : -m j -V 4 -q 0 -lowpass 20.5

Общее
Полное имя                               : E:\Музыка\2015 - Magister Bibendi\07 - Девятый вал.mp3
Формат                                   : MPEG Audio
Размер файла                             : 7,58 Мбайт
Продолжительность                        : 3 м. 12 с.
Режим общего битрейта                    : Постоянный
Общий поток                              : 320 Кбит/сек
Альбом                                   : Magister Bibendi
Альбом/Исполнитель                       : Trubetskoy
Часть/Положение                          : 1
Часть/Всего                              : 1
Трек                                     : Девятый вал
Трек/Положение                           : 7
Трек/Всего                               : 12
Исполнитель                              : Trubetskoy
Жанр                                     : Рок
Библиотека кодирования                   : LAME3.99
Обложка                                  : Yes
Тип обложки                              : Cover (front)
MIME-тип обложки                         : image/jpeg

Аудио
Формат                                   : MPEG Audio
Версия формата                           : Version 1
Профиль формата                          : Layer 3
Режим                                    : Joint stereo
Продолжительность                        : 3 м. 12 с.
Вид битрейта                             : Постоянный
Битрейт                                  : 320 Кбит/сек
Каналы                                   : 2 канала
Частота                                  : 44,1 КГц
Метод сжатия                             : С потерями
Размер потока                            : 7,35 Мбайт (97%)
Библиотека кодирования                   : LAME3.99
Настройки программы                      : -m j -V 4 -q 0 -lowpass 20.5

Общее
Полное имя                               : E:\Музыка\2015 - Magister Bibendi\08 - Гэтым разам.mp3
Формат                                   : MPEG Audio
Размер файла                             : 7,19 Мбайт
Продолжительность                        : 3 м. 2 с.
Режим общего битрейта                    : Постоянный
Общий поток                              : 320 Кбит/сек
Альбом                                   : Magister Bibendi
Альбом/Исполнитель                       : Trubetskoy
Часть/Положение                          : 1
Часть/Всего                              : 1
Трек                                     : Гэтым разам
Трек/Положение                           : 8
Трек/Всего                               : 12
Исполнитель                              : Trubetskoy
Жанр                                     : Рок
Библиотека кодирования                   : LAME3.99
Обложка                                  : Yes
Тип обложки                              : Cover (front)
MIME-тип обложки                         : image/jpeg

Аудио
Формат                                   : MPEG Audio
Версия формата                           : Version 1
Профиль формата                          : Layer 3
Режим                                    : Joint stereo
Продолжительность                        : 3 м. 2 с.
Вид битрейта                             : Постоянный
Битрейт                                  : 320 Кбит/сек
Каналы                                   : 2 канала
Частота                                  : 44,1 КГц
Метод сжатия                             : С потерями
Размер потока                            : 6,96 Мбайт (97%)
Библиотека кодирования                   : LAME3.99
Настройки программы                      : -m j -V 4 -q 0 -lowpass 20.5

Общее
Полное имя                               : E:\Музыка\2015 - Magister Bibendi\09 - Купала.mp3
Формат                                   : MPEG Audio
Размер файла                             : 6,30 Мбайт
Продолжительность                        : 2 м. 39 с.
Режим общего битрейта                    : Постоянный
Общий поток                              : 320 Кбит/сек
Альбом                                   : Magister Bibendi
Альбом/Исполнитель                       : Trubetskoy
Часть/Положение                          : 1
Часть/Всего                              : 1
Трек                                     : Купала
Трек/Положение                           : 9
Трек/Всего                               : 12
Исполнитель                              : Trubetskoy
Жанр                                     : Рок
Библиотека кодирования                   : LAME3.99
Обложка                                  : Yes
Тип обложки                              : Cover (front)
MIME-тип обложки                         : image/jpeg

Аудио
Формат                                   : MPEG Audio
Версия формата                           : Version 1
Профиль формата                          : Layer 3
Режим                                    : Joint stereo
Продолжительность                        : 2 м. 39 с.
Вид битрейта                             : Постоянный
Битрейт                                  : 320 Кбит/сек
Каналы                                   : 2 канала
Частота                                  : 44,1 КГц
Метод сжатия                             : С потерями
Размер потока                            : 6,07 Мбайт (96%)
Библиотека кодирования                   : LAME3.99
Настройки программы                      : -m j -V 4 -q 0 -lowpass 20.5

Общее
Полное имя                               : E:\Музыка\2015 - Magister Bibendi\10 - На крестинах сатаны.mp3
Формат                                   : MPEG Audio
Размер файла                             : 7,66 Мбайт
Продолжительность                        : 3 м. 14 с.
Режим общего битрейта                    : Постоянный
Общий поток                              : 320 Кбит/сек
Альбом                                   : Magister Bibendi
Альбом/Исполнитель                       : Trubetskoy
Часть/Положение                          : 1
Часть/Всего                              : 1
Трек                                     : На крестинах сатаны
Трек/Положение                           : 10
Трек/Всего                               : 12
Исполнитель                              : Trubetskoy
Жанр                                     : Рок
Библиотека кодирования                   : LAME3.99
Обложка                                  : Yes
Тип обложки                              : Cover (front)
MIME-тип обложки                         : image/jpeg

Аудио
Формат                                   : MPEG Audio
Версия формата                           : Version 1
Профиль формата                          : Layer 3
Режим                                    : Joint stereo
Расширение режима                        : MS Stereo
Продолжительность                        : 3 м. 14 с.
Вид битрейта                             : Постоянный
Битрейт                                  : 320 Кбит/сек
Каналы                                   : 2 канала
Частота                                  : 44,1 КГц
Метод сжатия                             : С потерями
Размер потока                            : 7,43 Мбайт (97%)
Библиотека кодирования                   : LAME3.99
Настройки программы                      : -m j -V 4 -q 0 -lowpass 20.5

Общее
Полное имя                               : E:\Музыка\2015 - Magister Bibendi\11 - Не пустят в рай.mp3
Формат                                   : MPEG Audio
Размер файла                             : 6,59 Мбайт
Продолжительность                        : 2 м. 46 с.
Режим общего битрейта                    : Постоянный
Общий поток                              : 320 Кбит/сек
Альбом                                   : Magister Bibendi
Альбом/Исполнитель                       : Trubetskoy
Часть/Положение                          : 1
Часть/Всего                              : 1
Трек                                     : Не пустят в рай
Трек/Положение                           : 11
Трек/Всего                               : 12
Исполнитель                              : Trubetskoy
Жанр                                     : Рок
Библиотека кодирования                   : LAME3.99
Обложка                                  : Yes
Тип обложки                              : Cover (front)
MIME-тип обложки                         : image/jpeg

Аудио
Формат                                   : MPEG Audio
Версия формата                           : Version 1
Профиль формата                          : Layer 3
Режим                                    : Joint stereo
Расширение режима                        : MS Stereo
Продолжительность                        : 2 м. 46 с.
Вид битрейта                             : Постоянный
Битрейт                                  : 320 Кбит/сек
Каналы                                   : 2 канала
Частота                                  : 44,1 КГц
Метод сжатия                             : С потерями
Размер потока                            : 6,36 Мбайт (97%)
Библиотека кодирования                   : LAME3.99
Настройки программы                      : -m j -V 4 -q 0 -lowpass 20.5

Общее
Полное имя                               : E:\Музыка\2015 - Magister Bibendi\12 - Стаканы.mp3
Формат                                   : MPEG Audio
Размер файла                             : 6,35 Мбайт
Продолжительность                        : 2 м. 40 с.
Режим общего битрейта                    : Постоянный
Общий поток                              : 320 Кбит/сек
Альбом                                   : Magister Bibendi
Альбом/Исполнитель                       : Trubetskoy
Часть/Положение                          : 1
Часть/Всего                              : 1
Трек                                     : Стаканы
Трек/Положение                           : 12
Трек/Всего                               : 12
Исполнитель                              : Trubetskoy
Жанр                                     : Рок
Библиотека кодирования                   : LAME3.99
Обложка                                  : Yes
Тип обложки                              : Cover (front)
MIME-тип обложки                         : image/jpeg

Аудио
Формат                                   : MPEG Audio
Версия формата                           : Version 1
Профиль формата                          : Layer 3
Режим                                    : Joint stereo
Продолжительность                        : 2 м. 40 с.
Вид битрейта                             : Постоянный
Битрейт                                  : 320 Кбит/сек
Каналы                                   : 2 канала
Частота                                  : 44,1 КГц
Метод сжатия                             : С потерями
Размер потока                            : 6,12 Мбайт (96%)
Библиотека кодирования                   : LAME3.99
Настройки программы                      : -m j -V 4 -q 0 -lowpass 20.5

Общее
Полное имя                               : E:\Музыка\2015 - Magister Bibendi\cover.jpg
Формат                                   : JPEG
Размер файла                             : 111 Кбайт

Изображения
Формат                                   : JPEG
Ширина                                   : 600 пикселей
Высота                                   : 600 пикселей
Цветовое пространство                    : YUV
Субдискретизация насыщенности            : 4:4:4
Битовая глубина                          : 8 бит
Метод сжатия                             : С потерями
Размер потока                            : 111 Кбайт (100%)
UPD:Обновил раздачу. Теперь в 320kbps.
info [Профиль]  [ЛС] 
Показать сообщения:    
Ответить на тему

Текущее время: 05-Дек 22:39

Часовой пояс: GMT + 4



Вы не можете начинать темы
Вы не можете отвечать на сообщения
Вы не можете редактировать свои сообщения
Вы не можете удалять свои сообщения
Вы не можете голосовать в опросах
Вы не можете прикреплять файлы к сообщениям
Вы не можете скачивать файлы