Ошибка

Миньоны / Minions (Кайл Балда, Пьер Коффан) [2015, мультфильм, комедия, семейный, BDRip 720p] Dub + Ukr + Eng + Sub от R.G. TNClub

Ответить на тему
 
Автор Сообщение

R.G. TNClub

Стаж: 2 года 3 месяца

Сообщений: 515

Рейтинг

post 23-Окт-2015 23:09 12[+]

[Цитировать] 

Миньоны / Minions
«Ой, всё»

Страна: США
Жанр: мультфильм, комедия, семейный
Год выпуска: 2015
Продолжительность: 01:30:55
Перевод:
  • Профессиональный (дублированный) [Лицензия iTunes] - русский
  • Профессиональный (дублированный) [Line In] - украинский
Оригинальная дорожка: английская
Субтитры: английские
Главы: есть

Режиссер: Кайл Балда, Пьер Коффан
В ролях: Сандра Буллок☆Sandra Bullock (Scarlet Overkill, озвучка), Джон Хэмм☆Jon Hamm (Herb Overkill, озвучка), Майкл Китон☆Michael Keaton (Walter Nelson, озвучка), Эллисон Дженни☆Allison Janney (Madge Nelson, озвучка), Стив Куган☆Steve Coogan (Professor Flux / Tower Guard, озвучка), Дженнифер Сондерс☆Jennifer Saunders (The Queen, озвучка), Джеффри Раш☆Geoffrey Rush (рассказчик, озвучка), Стив Карелл☆Steve Carell (Young Gru, озвучка), Пьер Коффан☆Pierre Coffin (The Minions, озвучка), Кэти Миксон☆Katy Mixon (Tina, озвучка)


Описание: Миньоны живут на планете гораздо дольше нас. У них одна навязчивая идея – служить самой Гадкой личности из имеющихся в наличии. Динозавры, фараоны, Дракула, Наполеон – все они оказались недолговечны. И тогда миньоны рванули в Нью-Йорк. Их ждут деньги, власть, роковая суперзлодейка Скарлет Оверкилл и, конечно же, вкуснейшая “банана”! Во всяком случае, так им кажется.

Качество видео: BDRip 720p
Рип от L!
Формат видео: MKV
Видео: MPEG-4 AVC Video ~ 7.5Mbps 1280 x 690 / 23,976 fps / 1.85:1 / High Profile 4.1
Аудио: :
  • Russian: 48 kHz, AC3 Dolby Digital, 3/2 (L,C,R,l,r) + LFE ch, ~384 kbps
  • Ukrainian: 48 kHz, AC3 Dolby Digital, 2.0 (L,R), ~ 192 Кбит/с
  • English: 48 kHz, AC3 Dolby Digital, 3/2 (L,C,R,l,r) + LFE ch, ~640 kbps
Формат субтитров: softsub (SRT)
Раздача от &
Minions.2015.Blu-ray.1080p.AVC.TrueHD.7.1.Atmos-HDArea
Unique ID : 202289592979547679292610766402216445740 (0x982F8EF6F444E5669649ECD3304AC72C)
Complete name : D:\L#TNClub\Minions.2015.Bluray.720p.DD5.1.x264-TNClub.mkv
Format : Matroska
Format version : Version 4 / Version 2
File size : 5.68 GiB
Duration : 1h 30mn
Overall bit rate : 8 936 Kbps
Movie name : L@TNClub: Миньоны / Minions (2015)
Encoded date : UTC 2015-10-24 05:16:04
Writing application : mkvmerge v8.3.0 ('Over the Horizon') 32bit
Writing library : libebml v1.3.1 + libmatroska v1.4.2
Attachements : coverrerr.png
DURATION : 01:30:58.016000000
NUMBER_OF_FRAMES : 170563
NUMBER_OF_BYTES : 130992384
_STATISTICS_WRITING_APP : mkvmerge v8.3.0 ('Over the Horizon') 32bit
_STATISTICS_WRITING_DATE_UTC : 2015-10-24 05:16:04
_STATISTICS_TAGS : BPS DURATION NUMBER_OF_FRAMES NUMBER_OF_BYTES

Video
ID : 1
Format : AVC
Format/Info : Advanced Video Codec
Format profile : High@L4.1
Format settings, CABAC : Yes
Format settings, ReFrames : 9 frames
Codec ID : V_MPEG4/ISO/AVC
Duration : 1h 30mn
Bit rate : 7 543 Kbps
Width : 1 280 pixels
Height : 690 pixels
Display aspect ratio : 1.85:1
Frame rate mode : Constant
Frame rate : 23.976 fps
Color space : YUV
Chroma subsampling : 4:2:0
Bit depth : 8 bits
Scan type : Progressive
Bits/(Pixel*Frame) : 0.356
Stream size : 4.79 GiB (84%)
Title : Minions.2015.Bluray.720p.DD5.1.x264-TNClub
Writing library : x264 core 146 r2538 121396c
Encoding settings : cabac=1 / ref=9 / deblock=1:-3:-2 / analyse=0x3:0x133 / me=umh / subme=11 / psy=1 / psy_rd=1.05:0.10 / mixed_ref=1 / me_range=32 / chroma_me=1 / trellis=2 / 8x8dct=1 / cqm=0 / deadzone=21,11 / fast_pskip=0 / chroma_qp_offset=-4 / threads=6 / lookahead_threads=1 / sliced_threads=0 / nr=0 / decimate=1 / interlaced=0 / bluray_compat=0 / constrained_intra=0 / bframes=8 / b_pyramid=2 / b_adapt=2 / b_bias=0 / direct=1 / weightb=1 / open_gop=0 / weightp=2 / keyint=230 / keyint_min=21 / scenecut=40 / intra_refresh=0 / rc_lookahead=60 / rc=crf / mbtree=0 / crf=17.0 / qcomp=0.70 / qpmin=0 / qpmax=69 / qpstep=4 / vbv_maxrate=30000 / vbv_bufsize=40000 / crf_max=0.0 / nal_hrd=none / filler=0 / ip_ratio=1.35 / pb_ratio=1.25 / aq=2:0.90
Language : English
Default : Yes
Forced : No
DURATION : 01:30:57.911000000
NUMBER_OF_FRAMES : 130859
NUMBER_OF_BYTES : 5265310558
_STATISTICS_WRITING_APP : mkvmerge v8.3.0 ('Over the Horizon') 32bit
_STATISTICS_WRITING_DATE_UTC : 2015-10-24 05:16:04
_STATISTICS_TAGS : BPS DURATION NUMBER_OF_FRAMES NUMBER_OF_BYTES

Audio #1
ID : 2
Format : AC-3
Format/Info : Audio Coding 3
Mode extension : CM (complete main)
Format settings, Endianness : Big
Codec ID : A_AC3
Duration : 1h 30mn
Bit rate mode : Constant
Bit rate : 384 Kbps
Channel(s) : 6 channels
Channel positions : Front: L C R, Side: L R, LFE
Sampling rate : 48.0 KHz
Compression mode : Lossy
Stream size : 250 MiB (4%)
Title : iTunes, DD5.1@384
Language : Russian
Default : Yes
Forced : No

Audio #2
ID : 3
Format : AC-3
Format/Info : Audio Coding 3
Mode extension : CM (complete main)
Format settings, Endianness : Big
Codec ID : A_AC3
Duration : 1h 30mn
Bit rate mode : Constant
Bit rate : 192 Kbps
Channel(s) : 2 channels
Channel positions : Front: L R
Sampling rate : 48.0 KHz
Compression mode : Lossy
Stream size : 125 MiB (2%)
Title : DD2.0@192kbps
Language : Ukrainian
Default : No
Forced : Yes

Audio #3
ID : 4
Format : AC-3
Format/Info : Audio Coding 3
Mode extension : CM (complete main)
Format settings, Endianness : Big
Codec ID : A_AC3
Duration : 1h 30mn
Bit rate mode : Constant
Bit rate : 640 Kbps
Channel(s) : 6 channels
Channel positions : Front: L C R, Side: L R, LFE
Sampling rate : 48.0 KHz
Compression mode : Lossy
Stream size : 416 MiB (7%)
Title : DD5.1@640kbps
Language : English
Default : No
Forced : No

Text
ID : 5
Format : UTF-8
Codec ID : S_TEXT/UTF8
Codec ID/Info : UTF-8 Plain Text
Language : English
Default : Yes
Forced : No

Menu
00:00:00.000 : en:00:00:00.000
00:05:39.839 : en:00:05:39.839
00:11:28.938 : en:00:11:28.938
00:16:55.139 : en:00:16:55.139
00:22:28.430 : en:00:22:28.430
00:26:59.034 : en:00:26:59.034
00:32:54.639 : en:00:32:54.639
00:37:28.872 : en:00:37:28.872
00:40:58.831 : en:00:40:58.831
00:45:29.310 : en:00:45:29.310
00:49:24.086 : en:00:49:24.086
00:53:43.053 : en:00:53:43.053
00:57:04.921 : en:00:57:04.921
01:01:36.943 : en:01:01:36.943
01:05:54.701 : en:01:05:54.701
01:07:55.238 : en:01:07:55.238
01:11:19.150 : en:01:11:19.150
01:15:32.653 : en:01:15:32.653
01:21:12.826 : en:01:21:12.826
01:28:24.758 : en:01:28:24.758
Пожалуйста, оставайтесь на раздаче как можно дольше!
Релиз специально для Tapochek.net
Все раздачи R.G.TNClub




Оформление by:GhostRidik
info [Профиль]  [ЛС] 

post 24-Окт-2015 09:45 (спустя 10 часов) [-]0[+]

Топик был перенесен из форума Новинки 2014-2015 (Web-DL, DVD, HD DVD, Blu-ray, HD Rips) в форум Другие рипы от R.G. TNСlub (Сериалы, документальное и др.)

L
 

post 24-Окт-2015 09:47 (спустя 10 часов) [-]0[+]

Топик был перенесен из форума Другие рипы от R.G. TNСlub (Сериалы, документальное и др.) в форум Зарубежное кино от R.G. TNСlub

L
 

post 25-Окт-2015 13:19 (спустя 1 день 14 часов) [-]0[+]

Топик был перенесен из форума Зарубежное кино от R.G. TNСlub в форум Мультфильмы от R.G. TNСlub

L
 
Показать сообщения:    
Ответить на тему

Текущее время: 09-Дек 11:49

Часовой пояс: GMT + 4



Вы не можете начинать темы
Вы не можете отвечать на сообщения
Вы не можете редактировать свои сообщения
Вы не можете удалять свои сообщения
Вы не можете голосовать в опросах
Вы не можете прикреплять файлы к сообщениям
Вы не можете скачивать файлы