Ошибка

Головоломка / Inside Out (Пит Доктер, Роналдо Дель Кармен) [2015, мультфильм, семейный, комедия, BDRemux 1080p] Dub + Ukr + Eng + Sub от R.G. TNClub

Ответить на тему
 
Автор Сообщение

R.G. TNClub

Стаж: 2 года 3 месяца

Сообщений: 515

Рейтинг

post 20-Окт-2015 23:09 3[+]

[Цитировать] 

Головоломка / Inside Out
«Нет слов, одни эмоции»

Страна: США
Жанр: мультфильм, семейный, комедия
Год выпуска: 2015
Продолжительность: 01:34:45
Перевод:
  • Профессиональный (дублированный) [Лицензия iTunes] - русский
  • Профессиональный (дублированный) - украинский
Субтитры: русские, английские
Оригинальная дорожка: английский
Главы: есть

Режиссер: Пит Доктер, Роналдо Дель Кармен
В ролях: Эми Полер / Amy Poehler (Joy, озвучка), Ричард Кайнд / Richard Kind (Bing Bong, озвучка), Билл Хейдер / Bill Hader (Fear, озвучка), Льюис Блэк / Lewis Black (Anger, озвучка), Минди Кейлинг / Mindy Kaling (Disgust, озвучка), Кейтлин Диас / Kaitlyn Dias (Riley, озвучка), Дайан Лэйн / Diane Lane (Mom, озвучка)


Описание: Райли — обычная 11-летняя школьница, и, как у каждого из нас, ее поведение определяют пять базовых эмоций: Радость, Печаль, Страх, Гнев и Брезгливость. Эмоции живут в сознании девочки и каждый день помогают ей справляться с проблемами, руководя всеми ее поступками. До поры до времени эмоции живут дружно, но вдруг оказывается, что Райли и ее родителям предстоит переезд из небольшого уютного городка в шумный и людный мегаполис. Каждая из эмоций считает, что именно она лучше прочих знает, что нужно делать в этой непростой ситуации, и в голове у девочки наступает полная неразбериха. Чтобы наладить жизнь в большом городе, освоиться в новой школе и подружиться с одноклассниками, эмоциям Райли предстоит снова научиться работать сообща.

Качество видео: BDRemux 1080p
by L!
Формат видео: MKV
Видео: MPEG-4 AVC Video ~ 24.2 Mbps 1080p / 23,976 fps / 16:9 / High Profile 4.1
Аудио: 4
  • Russian: 48 kHz, AC3 Dolby Digital, 3/2 (L,C,R,l,r) + LFE ch, 384 kbps
  • Ukrainian: 48 kHz, AC3 Dolby Digital, 3/2 (L,C,R,l,r) + LFE ch, ~448 kbps
  • English: 48 kHz | 24-bit, DTS-HD Master Audio 7.1 ch, ~3300 kbps (DTS Core: 5.1 / 48 kHz / 1509 kbps / 24-bit)
Формат субтитров: softsub (SRT)

Раздача от &
Inside.Out.2015.BDRip.1080p.BLUEBIRD
Unique ID : 207374735753852321522255795605266169839 (0x9C02EBDC449DD0079087204ADF86FFEF)
Complete name : D:\L#TNClub\Inside.Out.2015.Bluray.Remux.1080p.AVC-TNClub.mkv
Format : Matroska
Format version : Version 4 / Version 2
File size : 18.6 GiB
Duration : 1h 34mn
Overall bit rate mode : Variable
Overall bit rate : 28.1 Mbps
Movie name : L@TNClub: Головоломка / Inside Out (2015)
Encoded date : UTC 2015-10-20 18:54:37
Writing application : mkvmerge v8.3.0 ('Over the Horizon') 32bit
Writing library : libebml v1.3.1 + libmatroska v1.4.2
Attachements : coverre.png
DURATION : 01:34:37.824000000
NUMBER_OF_FRAMES : 532296
NUMBER_OF_BYTES : 2334809892
_STATISTICS_WRITING_APP : mkvmerge v8.3.0 ('Over the Horizon') 32bit
_STATISTICS_WRITING_DATE_UTC : 2015-10-20 18:54:37
_STATISTICS_TAGS : BPS DURATION NUMBER_OF_FRAMES NUMBER_OF_BYTES

Video
ID : 1
Format : AVC
Format/Info : Advanced Video Codec
Format profile : High@L4.1
Format settings, CABAC : Yes
Format settings, ReFrames : 4 frames
Codec ID : V_MPEG4/ISO/AVC
Duration : 1h 34mn
Bit rate mode : Variable
Maximum bit rate : 34.0 Mbps
Width : 1 920 pixels
Height : 1 080 pixels
Display aspect ratio : 16:9
Frame rate mode : Constant
Frame rate : 23.976 fps
Color space : YUV
Chroma subsampling : 4:2:0
Bit depth : 8 bits
Scan type : Progressive
Title : Inside.Out.2015.Bluray.Remux.1080p.AVC-TNClub
Default : Yes
Forced : No

Audio #1
ID : 2
Format : AC-3
Format/Info : Audio Coding 3
Mode extension : CM (complete main)
Format settings, Endianness : Big
Codec ID : A_AC3
Duration : 1h 34mn
Bit rate mode : Constant
Bit rate : 384 Kbps
Channel(s) : 6 channels
Channel positions : Front: L C R, Side: L R, LFE
Sampling rate : 48.0 KHz
Compression mode : Lossy
Stream size : 261 MiB (1%)
Title : iTunes, DD5.1@384
Language : Russian
Default : Yes
Forced : No

Audio #2
ID : 3
Format : AC-3
Format/Info : Audio Coding 3
Mode extension : CM (complete main)
Format settings, Endianness : Big
Codec ID : A_AC3
Duration : 1h 34mn
Bit rate mode : Constant
Bit rate : 448 Kbps
Channel(s) : 6 channels
Channel positions : Front: L C R, Side: L R, LFE
Sampling rate : 48.0 KHz
Compression mode : Lossy
Stream size : 304 MiB (2%)
Title : DD5.1@448
Language : Ukrainian
Default : No
Forced : No

Audio #3
ID : 4
Format : DTS
Format/Info : Digital Theater Systems
Format profile : MA / Core
Mode : 16
Format settings, Endianness : Big
Codec ID : A_DTS
Duration : 1h 34mn
Bit rate mode : Variable
Bit rate : Unknown / 1 509 Kbps
Channel(s) : 8 channels / 6 channels
Channel positions : Front: L C R, Side: L R, Back: L R, LFE / Front: L C R, Side: L R, LFE
Sampling rate : 48.0 KHz
Bit depth : 24 bits
Compression mode : Lossless / Lossy
Title : DTS-HD MA 7.1@3290kbps
Language : English
Default : No
Forced : No

Text #1
ID : 5
Format : UTF-8
Codec ID : S_TEXT/UTF8
Codec ID/Info : UTF-8 Plain Text
Language : Russian
Default : Yes
Forced : No

Text #2
ID : 6
Format : UTF-8
Codec ID : S_TEXT/UTF8
Codec ID/Info : UTF-8 Plain Text
Language : English
Default : No
Forced : No

Menu
00:00:00.000 : en:00:00:00.000
00:07:22.692 : en:00:07:22.692
00:11:36.779 : en:00:11:36.779
00:15:46.404 : en:00:15:46.404
00:20:02.243 : en:00:20:02.243
00:25:21.437 : en:00:25:21.437
00:26:47.064 : en:00:26:47.064
00:30:10.183 : en:00:30:10.183
00:34:45.792 : en:00:34:45.792
00:36:02.285 : en:00:36:02.285
00:37:45.305 : en:00:37:45.305
00:41:27.360 : en:00:41:27.360
00:43:35.613 : en:00:43:35.613
00:45:19.508 : en:00:45:19.508
00:46:51.851 : en:00:46:51.851
00:50:02.458 : en:00:50:02.458
00:51:34.341 : en:00:51:34.341
00:56:12.160 : en:00:56:12.160
01:00:03.683 : en:01:00:03.683
01:01:17.841 : en:01:01:17.841
01:03:50.368 : en:01:03:50.368
01:06:27.192 : en:01:06:27.192
01:11:15.771 : en:01:11:15.771
01:13:40.541 : en:01:13:40.541
01:15:38.659 : en:01:15:38.659
01:20:00.337 : en:01:20:00.337
01:23:57.199 : en:01:23:57.199
01:26:18.340 : en:01:26:18.340
Пожалуйста, оставайтесь на раздаче как можно дольше!
Релиз специально для Tapochek.net
Все раздачи R.G.TNClub


info [Профиль]  [ЛС] 

post 20-Окт-2015 23:11 (спустя 2 минуты) [-]0[+]

Топик был перенесен из форума Новинки 2014-2015 (Web-DL, DVD, HD DVD, Blu-ray, HD Rips) в форум Зарубежное кино от R.G. TNСlub

L
 

Frunze

Пол: Пол:Муж

Стаж: 6 лет 8 месяцев

Сообщений: 92

Украина
Рейтинг

post 21-Окт-2015 12:25 (спустя 13 часов) [-]4[+]

[Цитировать] 

Спасибо вам. Уже качаю. Ждал еще с прошлого года, а тут еще и украинский дубляж.
...и тут я увидел, что она весит 18 гигов...
info [Профиль]  [ЛС] 

L

Пол: Пол:Муж

Стаж: 6 лет 7 месяцев

Сообщений: 10759

Украина
Рейтинг

post 21-Окт-2015 18:09 (спустя 5 часов) [-]0[+]

[Цитировать] 

Frunze
Возьми меньше размер. Есть на трекере.

_________________
info [Профиль]  [ЛС] 

post 29-Окт-2015 10:55 (спустя 7 дней) [-]0[+]

Топик был перенесен из форума Зарубежное кино от R.G. TNСlub в форум Мультфильмы от R.G. TNСlub

L
 
Показать сообщения:    
Ответить на тему

Текущее время: 03-Дек 19:39

Часовой пояс: GMT + 4



Вы не можете начинать темы
Вы не можете отвечать на сообщения
Вы не можете редактировать свои сообщения
Вы не можете удалять свои сообщения
Вы не можете голосовать в опросах
Вы не можете прикреплять файлы к сообщениям
Вы не можете скачивать файлы