Ошибка

[iPad] Прометей / Prometheus (Ридли Скотт / Ridley Scott) [2012, США, Великобритания, фантастика, детектив, приключения, SD, 576p] Dub + Original + sub (rus, eng)

Ответить на тему
 
Автор Сообщение

Ravox

Пол: Пол:Муж

Стаж: 6 лет 8 месяцев

Сообщений: 421

Россия
Рейтинг

post 20-Окт-2015 21:35 1[+]

[Цитировать] 

Прометей / Prometheus

Год выпуска: 2012
Страна: США, Великобритания
Жанр: фантастика, детектив, приключения
Продолжительность: 02:03:46
Рейтинг MPAA: R
Рейтинг КиноПоиск: 7.169
Рейтинг IMDb: 7.000

Перевод: Профессиональный (дублированный)
Оригинальная аудиодорожка: есть
Cубтитры: русские и английские
Режиссёр: Ридли Скотт / Ridley Scott
Сценарий: Джон Спэйтс, Дэймон Линделоф, Дэн О’Бэннон
Продюссер: Дэвид Гайлер, Уолтер Хилл, Ридли Скотт
В ролях: Нуми Рапас, Майкл Фассбендер, Шарлиз Терон, Идрис Эльба, Гай Пирс, Логан Маршалл-Грин, Шон Харрис, Рейф Сполл, Иман Эллиотт, Бенедикт Вонг

Описание:
В поисках сакрального знания группа ученых отправляется в самые темные и неизведанные чертоги вселенной. Именно там, в отдаленных мирах, находясь на пределе своих умственных и физических возможностей, им предстоит вступить в безжалостную схватку за будущее всего человечества…

Качество исходника: BDRemux
Качество: SD
Разрешение: 576p
Формат: M4V
Видео: H.264, 1024x426, 2.40:1, 2 270 Kbps, 23.976 fps
Аудио: Русский/Дублированный, AAC / 2.0 / 160 Kbps / 48.0 KHz
Аудио №2: Английский/Оригинальная дорожка, AAC / 2.0 / 160 Kbps / 48.0 KHz
 
Media Type: Movie
Movie name: Прометей
XID: Apple:vendor_id:2012-tt1446714
Genre: фантастика & приключения & детектив
Artist:
Rating: R
Sort Name: Prometheus
Description: В поисках сакрального знания группа ученых отправляется в самые темные и неизведанные чертоги вселенной. Именно там, в отдаленных мирах, находясь на пределе своих умственных и физических возможностей, им предстоит вступить в безжалостную схватку за будущее всего человечества…
ScreenWriters: Jon Spaihts, Damon Lindelof
Producers: Nina Gold, Avy Kaufman, Ridley Scott, Tony Scott, David Giler, Walter Hill, Michael Costigan, Mark Huffam, Michael Ellenberg, Damon Lindelof, Steve Hart
Director: Ridley Scott, Amal Baggar, Annie Penn, Louise Wade
Cast: Noomi Rapace (Elizabeth Shaw), Michael Fassbender (David), Charlize Theron (Meredith Vickers), Idris Elba (Janek), Guy Pearce (Peter Weyland), Logan Marshall-Green (Charlie Holloway), Sean Harris (Fifield), Rafe Spall (Millburn), Emun Elliott (Chance), Kate Dickie (Ford), Branwell Donaghey (Mercenary 1), Patrick Wilson (Shaw's Father), Vladimir Furdik (Mercenary 2), Benedict Wong (Ravel), C.C. Smiff (Mercenary 3), Shane Steyn (Mercenary 4), Ian Whyte (Last Engineer), John Lebar (Ghost Engineer), Lucy Hutchinson (Young Shaw), Anil Biltoo (Linguist Teacher), Giannina Facio (Shaw's Mother), Louisa Staples (Greeting Message Violinist), James Embree (Mechanic), Annie Penn (Ship Computer Voice (voice)), Robin Atkin Downes (Ship Computer Voice (voice))
Release Date: 2012-06-08
 
General
Format : MPEG-4
Format profile : Base Media / Version 2
Codec ID : mp42
File size : 2.24 GiB
Duration : 2h 3mn
Overall bit rate mode : Variable
Overall bit rate : 2 585 Kbps
Movie name : Прометей
Director : Ridley Scott / Amal Baggar / Annie Penn / Louise Wade
Actor : Noomi Rapace (Elizabeth Shaw) / Michael Fassbender (David) / Charlize Theron (Meredith Vickers) / Idris Elba (Janek) / Guy Pearce (Peter Weyland) / Logan Marshall-Green (Charlie Holloway) / Sean Harris (Fifield) / Rafe Spall (Millburn) / Emun Elliott (Chance) / Kate Dickie (Ford) / Branwell Donaghey (Mercenary 1) / Patrick Wilson (Shaw's Father) / Vladimir Furdik (Mercenary 2) / Benedict Wong (Ravel) / C.C. Smiff (Mercenary 3) / Shane Steyn (Mercenary 4) / Ian Whyte (Last Engineer) / John Lebar (Ghost Engineer) / Lucy Hutchinson (Young Shaw) / Anil Biltoo (Linguist Teacher) / Giannina Facio (Shaw's Mother) / Louisa Staples (Greeting Message Violinist) / James Embree (Mechanic) / Annie Penn (Ship Computer Voice (voice)) / Robin Atkin Downes (Ship Computer Voice (voice))
Screenplay by : Jon Spaihts / Damon Lindelof
Producer : Nina Gold / Avy Kaufman / Ridley Scott / Tony Scott / David Giler / Walter Hill / Michael Costigan / Mark Huffam / Michael Ellenberg / Damon Lindelof / Steve Hart
Genre : фантастика & приключения & детектив
ContentType : Short Film
Description : В поисках сакрального знания группа ученых отправляется в самые темные и неизведанные чертоги вселенной. Именно там, в отдаленных мирах, находясь на пределе своих умственных и физических возможностей, им предстоит вступить в безжалостную схватку за б
Recorded date : 2012-06-08
Encoded date : UTC 2036-02-06 06:28:16
Tagged date : UTC 2015-10-19 17:25:40
Writing application : MkvToMp4 [www.mkvtomp4.ru] version: 0.224 (x64)
Cover : Yes
Title/Sort : Prometheus
LongDescription : В поисках сакрального знания группа ученых отправляется в самые темные и неизведанные чертоги вселенной. Именно там, в отдаленных мирах, находясь на пределе своих умственных и физических возможностей, им предстоит вступить в безжалостную схватку за будущее всего человечества…
Vendor : Apple:vendor_id:2012-tt1446714
ContentRating : mpaa|R|400|

Video
ID : 1
Format : AVC
Format/Info : Advanced Video Codec
Format profile : High@L3.1
Format settings, CABAC : Yes
Format settings, ReFrames : 9 frames
Codec ID : avc1
Codec ID/Info : Advanced Video Coding
Duration : 2h 3mn
Bit rate : 2 270 Kbps
Width : 1 024 pixels
Height : 426 pixels
Display aspect ratio : 2.40:1
Frame rate mode : Variable
Frame rate : 23.976 fps
Minimum frame rate : 23.974 fps
Maximum frame rate : 23.981 fps
Color space : YUV
Chroma subsampling : 4:2:0
Bit depth : 8 bits
Scan type : Progressive
Bits/(Pixel*Frame) : 0.217
Stream size : 1.95 GiB (87%)
Writing library : x264 core 142 r2479 dd79a61
Encoding settings : cabac=1 / ref=9 / deblock=1:0:0 / analyse=0x3:0x113 / me=umh / subme=9 / psy=1 / psy_rd=1.00:0.00 / mixed_ref=1 / me_range=32 / chroma_me=1 / trellis=1 / 8x8dct=1 / cqm=0 / deadzone=21,11 / fast_pskip=1 / chroma_qp_offset=-2 / threads=12 / lookahead_threads=1 / sliced_threads=0 / nr=0 / decimate=1 / interlaced=0 / bluray_compat=0 / constrained_intra=0 / bframes=6 / b_pyramid=2 / b_adapt=1 / b_bias=0 / direct=1 / weightb=1 / open_gop=0 / weightp=2 / keyint=240 / keyint_min=24 / scenecut=40 / intra_refresh=0 / rc_lookahead=40 / rc=2pass / mbtree=1 / bitrate=2270 / ratetol=1.0 / qcomp=0.60 / qpmin=0 / qpmax=69 / qpstep=4 / cplxblur=20.0 / qblur=0.5 / vbv_maxrate=17500 / vbv_bufsize=17500 / nal_hrd=none / filler=0 / ip_ratio=1.40 / aq=1:1.00
Encoded date : UTC 2036-02-06 06:28:16
Tagged date : UTC 2036-02-06 06:28:16
Color range : Limited
Color primaries : BT.709
Transfer characteristics : BT.709
Matrix coefficients : BT.709

Audio #1
ID : 2
Format : AAC
Format/Info : Advanced Audio Codec
Format profile : LC
Codec ID : 40
Duration : 2h 3mn
Bit rate mode : Variable
Bit rate : 160 Kbps
Maximum bit rate : 194 Kbps
Channel(s) : 2 channels
Channel positions : Front: L R
Sampling rate : 48.0 KHz
Compression mode : Lossy
Stream size : 142 MiB (6%)
Title : Dub / Dub
Language : Russian
Encoded date : UTC 2036-02-06 06:28:16
Tagged date : UTC 2036-02-06 06:28:16

Audio #2
ID : 3
Format : AAC
Format/Info : Advanced Audio Codec
Format profile : LC
Codec ID : 40
Duration : 2h 3mn
Bit rate mode : Variable
Bit rate : 160 Kbps
Maximum bit rate : 195 Kbps
Channel(s) : 2 channels
Channel positions : Front: L R
Sampling rate : 48.0 KHz
Compression mode : Lossy
Stream size : 142 MiB (6%)
Title : Original / Original
Language : English
Encoded date : UTC 2036-02-06 06:28:16
Tagged date : UTC 2036-02-06 06:28:16

Text #1
ID : 4
Format : Timed Text
Muxing mode : sbtl
Codec ID : tx3g
Duration : 1h 56mn
Bit rate mode : Variable
Bit rate : 77 bps
Stream size : 65.7 KiB (0%)
Language : Russian
Encoded date : UTC 2036-02-06 06:28:16
Tagged date : UTC 2036-02-06 06:28:16

Text #2
ID : 5
Format : Timed Text
Muxing mode : sbtl
Codec ID : tx3g
Duration : 2h 3mn
Bit rate mode : Variable
Bit rate : 50 bps
Stream size : 45.5 KiB (0%)
Language : English
Encoded date : UTC 2036-02-06 06:28:16
Tagged date : UTC 2036-02-06 06:28:16

Menu
ID : 7
Codec ID : text
Duration : 2h 3mn
Encoded date : UTC 2015-10-19 17:25:40
Tagged date : UTC 2015-10-19 17:25:40
00:00:00.000 : Chapter 1
00:05:13.230 : Chapter 2
00:07:44.964 : Chapter 3
00:11:31.608 : Chapter 4
00:15:09.951 : Chapter 5
00:20:04.995 : Chapter 6
00:22:32.935 : Chapter 7
00:27:43.245 : Chapter 8
00:31:57.958 : Chapter 9
00:34:10.924 : Chapter 10
00:37:53.354 : Chapter 11
00:40:45.485 : Chapter 12
00:45:49.455 : Chapter 13
00:48:48.008 : Chapter 14
00:50:23.187 : Chapter 15
00:53:56.525 : Chapter 16
00:56:32.306 : Chapter 17
00:59:31.735 : Chapter 18
01:01:29.311 : Chapter 19
01:04:17.645 : Chapter 20
01:06:01.583 : Chapter 21
01:08:58.009 : Chapter 22
01:11:13.686 : Chapter 23
01:15:10.715 : Chapter 24
01:17:06.121 : Chapter 25
01:25:02.431 : Chapter 26
01:27:09.433 : Chapter 27
01:30:10.447 : Chapter 28
01:32:43.850 : Chapter 29
01:35:23.217 : Chapter 30
01:37:47.028 : Chapter 31
01:40:46.499 : Chapter 32
01:43:46.303 : Chapter 33
01:48:28.919 : Chapter 34
01:52:08.180 : Chapter 35
01:58:06.413 : Chapter 36
Bit rate mode : VBR
 
x264 [info]: frame I:2677 Avg QP:13.30 size: 60182
x264 [info]: frame P:84476 Avg QP:15.96 size: 17879
x264 [info]: frame B:90903 Avg QP:18.03 size: 4641
x264 [info]: consecutive B-frames: 22.9% 29.8% 9.6% 12.9% 16.7% 7.5% 0.6%
x264 [info]: mb I I16..4: 11.5% 67.5% 21.1%
x264 [info]: mb P I16..4: 0.8% 4.3% 1.4% P16..4: 41.0% 27.6% 15.3% 0.0% 0.0% skip: 9.5%
x264 [info]: mb B I16..4: 0.0% 0.1% 0.1% B16..8: 40.3% 8.2% 2.2% direct: 3.0% skip:46.1% L0:43.4% L1:47.4% BI: 9.1%
x264 [info]: 8x8 transform intra:66.2% inter:68.3%
x264 [info]: coded y,uvDC,uvAC intra: 86.3% 75.8% 53.1% inter: 26.7% 20.8% 4.0%
x264 [info]: i16 v,h,dc,p: 30% 19% 9% 41%
x264 [info]: i8 v,h,dc,ddl,ddr,vr,hd,vl,hu: 7% 9% 5% 10% 15% 13% 15% 12% 14%
x264 [info]: i4 v,h,dc,ddl,ddr,vr,hd,vl,hu: 8% 8% 4% 10% 15% 13% 15% 11% 15%
x264 [info]: i8c dc,h,v,p: 41% 29% 17% 13%
x264 [info]: Weighted P-Frames: Y:9.6% UV:3.6%
x264 [info]: ref P L0: 51.1% 9.0% 15.2% 7.6% 5.2% 4.0% 3.2% 1.9% 1.8% 0.8% 0.1%
x264 [info]: ref B L0: 71.2% 13.3% 6.7% 3.1% 2.4% 1.8% 1.3% 0.3%
x264 [info]: ref B L1: 92.5% 7.5%
x264 [info]: kb/s:2255.02
info [Профиль]  [ЛС] 

post 22-Окт-2015 13:34 (спустя 1 день 15 часов) [-]0[+]

Топик был перенесен из форума Анонсы в форум Видео (iPhone/iPod Touch/iPad)

Delsin
 
Показать сообщения:    
Ответить на тему

Текущее время: 03-Дек 23:44

Часовой пояс: GMT + 4



Вы не можете начинать темы
Вы не можете отвечать на сообщения
Вы не можете редактировать свои сообщения
Вы не можете удалять свои сообщения
Вы не можете голосовать в опросах
Вы не можете прикреплять файлы к сообщениям
Вы не можете скачивать файлы