Ошибка

На самом деле я... / Actually, I Am... / Jitsu wa Watashi wa... (TV) [1-13 из 13] [2015] [комедия, школа, мистика, романтика] [BDRip1080p] [Любительский]

Ответить на тему
 
Автор Сообщение

Chel90RUS

Пол: Пол:Муж

Стаж: 5 лет 5 месяцев

Сообщений: 413

Россия
Рейтинг

post 19-Окт-2015 18:10 0[+]

[Цитировать] 

pic="http://static2.anidub.com/tracker/poster/f5ac4283ea.jpg"
На самом деле я...
Actually, I Am... / 実は私は

Год выпуска: 2015
Жанр: комедия, школа, мистика, романтика
Страна: Япония
Тип: BDRip
Продолжительность: 13 серий ~ 24 мин
Дата выпуска: c 07.07.2015 по 29.09.2015
Режиссер: Ямамото Ясутака
Автор оригинала / Сценарист: Масуда Эйдзи
Озвучено: JAM, Trina_D
Перевод: Kladium
Студия: TMS
Аудио: Dolby AC3 48000Hz stereo 192kbps [A: JAM, Trina_D [AniDUB] [rus] (ac3, 48000 Hz, stereo, 192 kb/s) [default]]
Видео: MPEG4 Video (H264) 1920x1080 23.976fps [V: Japanese [jpn] (h264 high 10 L4.1, yuv420p10le, 1920x1080) [default]]
General
Unique ID : 230540788692763661225397550981991237254 (0xAD708A7422FA5C91A87359B7F2B60686)
Complete name : \[AniDub]_Jitsu-wa_Watashi_wa_[01]_[BDRip_1920x1080_x264_Ac3]_[JAM_Trina_D].mkv
Format : Matroska
Format version : Version 4 / Version 2
File size : 1.14 GiB
Duration : 23mn 51s
Overall bit rate : 6 863 Kbps
Encoded date : UTC 2016-08-12 21:43:29
Writing application : mkvmerge v9.2.0 ('Photograph') 32bit
Writing library : libebml v1.3.3 + libmatroska v1.4.4
DURATION : 00:23:51.008000000
NUMBER_OF_FRAMES : 44719
NUMBER_OF_BYTES : 34344192
_STATISTICS_WRITING_APP : mkvmerge v9.2.0 ('Photograph') 32bit
_STATISTICS_WRITING_DATE_UTC : 2016-08-12 21:43:29
_STATISTICS_TAGS : BPS DURATION NUMBER_OF_FRAMES NUMBER_OF_BYTES

Video
ID : 1
Format : AVC
Format/Info : Advanced Video Codec
Format profile : High 10@L4.1
Format settings, CABAC : Yes
Format settings, ReFrames : 4 frames
Codec ID : V_MPEG4/ISO/AVC
Duration : 23mn 51s
Bit rate : 6 535 Kbps
Width : 1 920 pixels
Height : 1 080 pixels
Display aspect ratio : 16:9
Frame rate mode : Constant
Frame rate : 23.976 fps
Color space : YUV
Chroma subsampling : 4:2:0
Bit depth : 10 bits
Scan type : Progressive
Bits/(Pixel*Frame) : 0.131
Stream size : 1.09 GiB (95%)
Writing library : x264 core 144 r2525 40bb568
Encoding settings : cabac=1 / ref=4 / deblock=1:-2:-2 / analyse=0x3:0x133 / me=umh / subme=9 / psy=1 / psy_rd=0.70:0.00 / mixed_ref=1 / me_range=32 / chroma_me=1 / trellis=2 / 8x8dct=1 / cqm=0 / deadzone=21,11 / fast_pskip=1 / chroma_qp_offset=-2 / threads=6 / lookahead_threads=1 / sliced_threads=0 / nr=0 / decimate=0 / interlaced=0 / bluray_compat=0 / constrained_intra=0 / bframes=8 / b_pyramid=2 / b_adapt=2 / b_bias=0 / direct=3 / weightb=1 / open_gop=0 / weightp=2 / keyint=240 / keyint_min=25 / scenecut=40 / intra_refresh=0 / rc=crf / mbtree=0 / crf=16.3 / qcomp=0.65 / qpmin=8 / qpmax=38 / qpstep=4 / ip_ratio=1.40 / pb_ratio=1.30 / aq=1:1.00
Language : Japanese
Default : Yes
Forced : No
Color range : Limited
Color primaries : BT.709
Transfer characteristics : BT.709
Matrix coefficients : BT.709
DURATION : 00:23:50.972000000
NUMBER_OF_FRAMES : 34309
NUMBER_OF_BYTES : 1192969519
_STATISTICS_WRITING_APP : mkvmerge v9.2.0 ('Photograph') 32bit
_STATISTICS_WRITING_DATE_UTC : 2016-08-12 21:43:29
_STATISTICS_TAGS : BPS DURATION NUMBER_OF_FRAMES NUMBER_OF_BYTES

Audio
ID : 2
Format : AC-3
Format/Info : Audio Coding 3
Mode extension : CM (complete main)
Format settings, Endianness : Big
Codec ID : A_AC3
Duration : 23mn 51s
Bit rate mode : Constant
Bit rate : 192 Kbps
Channel(s) : 2 channels
Channel positions : Front: L R
Sampling rate : 48.0 KHz
Compression mode : Lossy
Stream size : 32.8 MiB (3%)
Title : JAM, Trina_D [AniDUB]
Language : Russian
Default : Yes
Forced : No


Описание: Куроминэ не умеет врать. Но у всех есть свои секреты, и сам Куроминэ - не исключение. Он влюблён в элегантную и таинственную Сирагами... Но почему когда никто не видит, она расправляет крылья за спиной и обнажает острые клыки? Эта девушка определённо не такая, как остальные...
Перезалито 14/08/2016
Теперь качество BDRip1080p
info [Профиль]  [ЛС] 

Wahorezko

Пол: Пол:Муж

Стаж: 7 лет 2 месяца

Сообщений: 720

Предупреждений: 1

Россия
Рейтинг

post 20-Окт-2015 17:08 (спустя 22 часа) [-]0[+]

[Цитировать] 

и как оно?
info [Профиль]  [ЛС] 

DeusNeko

Пол: Пол:Муж

Стаж: 7 лет 2 месяца

Сообщений: 1381

Предупреждений: 1

Россия
Рейтинг

post 20-Окт-2015 17:18 (спустя 10 минут) [-]1[+]

[Цитировать] 

Wah писал(а):

и как оно?
По-моему, проходняк.

_________________
Matrix Mini-I Pro -> Questyle CMA800R -> Sennheiser HD 280/PSB M4U 1/Beyerdynamic DT 770 Pro/Beyerdynamic T90/HiFiMAN HE-400
info [Профиль]  [ЛС] 

Chel90RUS

Пол: Пол:Муж

Стаж: 5 лет 5 месяцев

Сообщений: 413

Россия
Рейтинг

post 14-Авг-2016 01:00 (спустя 9 месяцев 24 дня) [-]0[+]

[Цитировать] 

Перезалито 14/08/2016
Теперь качество BDRip1080p

_________________
info [Профиль]  [ЛС] 

Aldorr

Стаж: 7 лет 8 месяцев

Сообщений: 213

Украина
Рейтинг

post 15-Авг-2016 02:45 (спустя 1 день 1 час) [-]1[+]

[Цитировать] 

Начало отвратительное, будем честными с собой Улыбаюсь

Но к середине становится лучше

_________________
догорает свеча,
что-то тихо шепча
молчаливой
громаде
меча
info [Профиль]  [ЛС] 
Показать сообщения:    
Ответить на тему

Текущее время: 08-Дек 00:17

Часовой пояс: GMT + 4



Вы не можете начинать темы
Вы не можете отвечать на сообщения
Вы не можете редактировать свои сообщения
Вы не можете удалять свои сообщения
Вы не можете голосовать в опросах
Вы не можете прикреплять файлы к сообщениям
Вы не можете скачивать файлы