Ошибка

Мадагаскар / Madagascar (Эрик Дарнелл, Том МакГрат, Конрад Вернон / Eric Darnell, Tom McGrath, Conrad Vernon) [2005 г., 2008 г., 2012 г., комедия, приключения, семейный, мультфильм, Blu-ray 1080p] Трилогия

Ответить на тему
 
Автор Сообщение

Eвгений

Пол: Пол:Муж

Стаж: 6 лет 9 месяцев

Сообщений: 680

Россия
Рейтинг

post 14-Окт-2015 15:41 1[+]

[Цитировать] 

Мадагаскар / Madagascar

Год выпуска: 2005
Страна: США, DreamWorks SKG
Жанр: комедия, приключения, семейный, мультфильм
Продолжительность: 01:25:58
Перевод: Профессиональный (полное дублирование)
Субтитры: Русские, Английские, Немецкие, Украинские, Венгерские, Итальянские, Португальские,
Испанские, Эстонские, Латышские, Литовские, Турецкие
Режиссер: Эрик Дарнелл, Том МакГрат / Eric Darnell, Tom McGrath
В ролях: Бен Стиллер, Крис Рок, Дэвид Швиммер, Джада Пинкетт Смит, Саша Барон Коэн, Седрик «Развлекатель», Энди Рихтер, Том МакГрат, Кристофер Найтс, Крис Миллер. (Роли дублировали: Константин Хабенский, Оскар Кучера, Александр Цекало, Маша Малиновская, Александр Машанов, Федор Машанов, Анатолий Дубанов, Светлана Кузнецова)
Описание: Четверо изнеженных животных из Центрального зоопарка в Нью-Йорке — лев Алекс, зебра Марти, жираф Мелман и гиппопотамиха Глория — решаются на побег. Оказавшись после кораблекрушения на экзотическом острове Мадагаскар, населенном лемурами и поедающими их фоссами, путешественники с ужасом понимают, что с городскими привычками им придется распрощаться.
Здесь нет людей, любимых клеток, вкусной кормежки. Начинается шоу «Последний герой» только с животными — нашим друзьям нужно выжить в непривычной среде обитания, где на каждом шагу подстерегает опасность…
Качество: Blu-ray
Формат: BDMV
Видео кодек: MPEG-4
Аудио кодек: Dolby TrueHD, Dolby Digital
Видео: 1920x1080, 32641 kbps, 23,976 fps
Аудио: English, Dolby TrueHD Audio, 3324 kbps, 5.1 / 48 kHz / 3324 kbps / 24-bit (AC3 Embedded: 5.1 / 48 kHz / 640 kbps)
Аудио: German, Dolby Digital Audio, 640 kbps, 5.1 / 48 kHz / 640 kbps
Аудио: Spanish, Dolby Digital Audio, 640 kbps, 5.1 / 48 kHz / 640 kbps
Аудио: Hebrew, Dolby Digital Audio, 640 kbps, 5.1 / 48 kHz / 640 kbps
Аудио: Italian, Dolby Digital Audio, 640 kbps, 5.1 / 48 kHz / 640 kbps
Аудио: Portuguese, Dolby Digital Audio, 640 kbps, 5.1 / 48 kHz / 640 kbps
Аудио: Russian, Dolby Digital Audio, 640 kbps, 5.1 / 48 kHz / 640 kbps
Аудио: Turkish, Dolby Digital Audio, 640 kbps, 5.1 / 48 kHz / 640 kbps
Аудио: English, Dolby Digital Audio, 224 kbps, 2.0 / 48 kHz / 224 kbps / Dolby Surround

* Комментарии режиссеров Тома МакГрата и Эрика Дарнелла
* Прикольные подробности
* Кто озвучивал персонажей
* Как создавался мультфильм
* Технологии "Мадагаскара"
* Dreamworks Kids: Видеоклип "I Like to Move It, Move It"
* Волшебный остров
* Пингвины, так сильно полюбившиеся многим зрителям, попали в проект совершенно случайно. Дело в том, что второй режиссер мультфильма Эрик Дарнелл придумал их гораздо раньше — при создании так и не вышедшего мультфильма «Rockumentary», повествующего о судьбе рок-коллектива, созданного из пингвинов. Включившись в работу над «Мадагаскаром», Эрик пропихнул свою идею в сюжетную линию мультфильма. Таким образом, пингвины переквалифицировались из рок-музыкантов в ретивых коммандос.
* На получение роли Глории претендовали Мадонна, Дженнифер Лопез и Гвен Стефани. В конечном итоге роль досталась Джаде Пинкетт Смит.
* В ходе выбора композитора проекта произошла рокировка: вместо Гарри Грегсона-Уильямса в проект пришел Ханс Зиммер. Любопытно, что в ходе проекта «Царство небесное» произошла обратная замена: вместо Ханса композитором пеплума стал Гарри.
* Одно из рабочих названий мультфильма — «Дикая жизнь».
* Первоначальный вариант сценария описывал судьбу гуманистов, освобождающих животных из клеток.
* Режиссер Том МакГраф озвучил одного из пингвинов по кличке «Шкипер». При создании данного образа Том взял за основу голос его старого приятеля-композитора Шона Паттерсона.
* В ходе сцены, проходящей на территории Таймс-Сквер, в которой зебра Марти адресует свой вопрос полицейской лошади, на экране проскакивает логотип компании «Hewlett-Packard». HP является официальным поставщиком компьютерной техники для анимационного подразделения студии «DreamWorks».

Мадагаскар 2 / Madagascar: Escape 2 Africa

Год выпуска: 2008
Страна: США, DreamWorks SKG
Жанр: комедия, приключения, семейный, мультфильм
Продолжительность: 01:29:24
Перевод: Профессиональный (полное дублирование)
Субтитры: Русские, Английские, Украинские, Венгерские, Румынские, Эстонские, Латышские, Литовские
Режиссер: Эрик Дарнелл, Том МакГрат / Eric Darnell, Tom McGrath
В ролях: Бен Стиллер, Крис Рок, Дэвид Швиммер, Джада Пинкетт Смит, Саша Барон Коэн, Седрик «Развлекатель», Энди Рихтер, Берни Мак, Алек Болдуин, Шерри Шеперд, Уилл Ай Эм, Элиза Габриелли (Роли дублировали: Константин Хабенский, Оскар Кучера, Александр Цекало, Маша Малиновская, Андрей Лёвин, Федор Машанов, Регина Щукина, Иван Паршин, Светлана Кузнецова, Сергей Пархоменко, Анатолий Дубанов, Константин Ефимов)
Описание: Полная опасностей жизнь на Мадагаскаре не оправдала ожиданий привыкших к комфорту Нью-Йоркского зоопарка животных — льва Алекса, зебры Марти, жирафа Мелмана и бегемотихи Глории — и друзья решают сбежать с острова. По случайности, всю компанию заносит в Африку, где Алекс встречает свою семью, с которой он был разлучен в детстве. Неожиданно для себя Алекс понимает, что после жизни в зоопарке у него гораздо меньше общего с родственниками, чем ему хотелось бы…
Качество: Blu-ray
Формат: BDMV
Видео кодек: MPEG-4
Аудио кодек: Dolby TrueHD, Dolby Digital
Видео: 1920x1080, 29375 kbps, 23,976 fps
Аудио: Dolby TrueHD Audio, English, 3364 kbps, 5.1 / 48 kHz / 3364 kbps / 24-bit (AC3 Embedded: 5.1 / 48 kHz / 640 kbps)
Аудио: Dolby Digital Audio, Latvian, 640 kbps, 5.1 / 48 kHz / 640 kbps
Аудио: Dolby Digital Audio, Hebrew, 640 kbps, 5.1 / 48 kHz / 640 kbps
Аудио: Dolby Digital Audio, English, 224 kbps, 2.0 / 48 kHz / 224 kbps
Аудио: Dolby Digital Plus Audio, English, 192 kbps, 2.0 / 48 kHz / 192 kbps
Аудио: Dolby Digital Audio, Lithuanian, 640 kbps, 5.1 / 48 kHz / 640 kbps
Аудио: Dolby Digital Audio, Russian, 640 kbps, 5.1 / 48 kHz / 640 kbps
Аудио: Dolby Digital Audio,Romanian, 640 kbps, 5.1 / 48 kHz / 640 kbps
Аудио: Dolby Digital Audio, Estonian, 640 kbps, 5.1 / 48 kHz / 640 kbps
Аудио: Dolby Digital Audio, Ukrainian, 640 kbps, 5.1 / 48 kHz / 640 kbps

* Комментрии создателей
* Уголок аниматоров
* Интересные факты
* Отвязные клипы
* "Пингвин Эйр" приглашает в полет" (игра для телеприставок)
* Видеоролики Nickelodeon (с сюрпризом)

Мадагаскар 3 / Madagascar 3: Europe's Most Wanted

Год выпуска: 2012
Страна: США
Жанр: мультфильм
Продолжительность: 01:33:24
Перевод: Профессиональный (полное дублирование)
Язык субтитров: Английский, Болгарский, Эстонский, Литовский, Латвийский, Русский, Турецкий, Украинский
Режиссер:
  • Эрик Дарнелл, Том МакГрат, Конрад Вернон

В ролях:
  • Бен Стиллер, Крис Рок, Дэвид Швиммер, Джада Пинкетт Смит, Саша Барон Коэн, Седрик «Развлекатель», Энди Рихтер, Том МакГрат, Фрэнсис МакДорманд, Джессика Честейн

Описание: Лев Алекс, зебра Марти, гиппопотамиха Глория и жираф Мелман, а также король Джулиан, Морис, Морт и Пингвины все еще пытаются вернуться в Нью-Йорк. На этот раз их путь пройдет через Европу, где они откроют свой цирк.
Доп. информация:
CEE - Central Eastern Europe original release!
РАЗДАЧА ОТ:
Качество: Blu-ray
Формат: BDMV
Видео кодек: MPEG-4
Аудио кодек: Dolby TrueHD, Dolby Digital
Видео: 1920x1080, 27022 kbps, 23,976 fps
Аудио: Dolby TrueHD Audio, English, 4573 kbps, 7.1 / 48 kHz / 4573 kbps / 24-bit (AC3 Embedded: 5.1 / 48 kHz / 640 kbps / DN -4dB)
Аудио: Dolby Digital Audio, Bulgarian, 640 kbps, 5.1 / 48 kHz / 640 kbps / DN -4dB
Аудио: Dolby Digital Audio, Estonian, 640 kbps, 5.1 / 48 kHz / 640 kbps / DN -4dB
Аудио: Dolby Digital Audio, Russian, 640 kbps, 5.1 / 48 kHz / 640 kbps / DN -4dB
Аудио: Dolby Digital Audio, English, 224 kbps, 2.0 / 48 kHz / 224 kbps / DN -4dB
Аудио: Dolby Digital Plus Audio, English, 224 kbps, 2.0 / 48 kHz / 224 kbps
Аудио: Dolby Digital Audio, Latvian, 640 kbps, 5.1 / 48 kHz / 640 kbps / DN -4dB
Аудио: Dolby Digital Audio, Lithuanian, 640 kbps, 5.1 / 48 kHz / 640 kbps / DN -4dB
Аудио: Dolby Digital Audio, Turkish, 640 kbps, 5.1 / 48 kHz / 640 kbps / DN -4dB
Аудио: Dolby Digital Audio, Ukrainian, 640 kbps, 5.1 / 48 kHz / 640 kbps / DN -4dB

• Когда капитан Шантель Дюбуа распечатывает информацию из своего поиска, персонаж за кадром говорит, что слышит, как начал работать лазерный принтер. Показывают струйный принтер, а звук, использованный для него, взят от матричного принтера.

• В конце фильма, видно название судна противника — «Mal De Mer», что в переводе с французского означает «Морская болезнь».

• Капитан Шантель Дюбуа поет для своих приспешников «Non, je ne regrette rien» в течение минуты. Это французская песня, получившая известность после того, как в 1960 году ее записала Эдит Пиаф. Пиаф посвятила запись этой песни французскому отряду иностранных волонтеров, которые до сих пор поют ее на парадах. В соответствии с реакцией мужчин на эту песню, предполагается, что все они служат или служили в этом отряде.
Supplements
Mad Music Mash-up
Circus Acts
Big Top Cast
Deleted Scenes
Making of How to Train Your Dragon Live Spectacular arena show world tour
Filmmakers Commentary

Exclusive HD Content
Get them to the Train game
Animators' Corner
Trivia Track

Код:

Disc Title:     Madagaskar.2005.1080p.Blu-Ray.AVC.TrueHD.5.1
Disc Size:      44 297 406 766 bytes
Protection:     AACS
BD-Java:        Yes
BDInfo:         0.5.8

Notes:         

BDINFO HOME:
  Cinema Squid
    http://www.cinemasquid.com/blu-ray/tools/bdinfo

INCLUDES FORUMS REPORT FOR:
  AVS Forum Blu-ray Audio and Video Specifications Thread
    http://www.avsforum.com/avs-vb/showthread.php?t=1155731

********************
PLAYLIST: 00000.MPLS
********************

<--- BEGIN FORUMS PASTE --->
[code]
                                                                                                                Total   Video                                             
Title                                                           Codec   Length  Movie Size      Disc Size       Bitrate Bitrate Main Audio Track                          Secondary Audio Track
-----                                                           ------  ------- --------------  --------------  ------- ------- ------------------                        ---------------------
00000.MPLS                                                      AVC     1:25:58 29 481 044 736  44 297 406 766  45,72   32,64   Dolby TrueHD 5.1 3324Kbps (48kHz/24-bit) 
[/code]

[code]

DISC INFO:

Disc Title:     Madagaskar.2005.1080p.Blu-Ray.AVC.TrueHD.5.1
Disc Size:      44 297 406 766 bytes
Protection:     AACS
BD-Java:        Yes
BDInfo:         0.5.8

PLAYLIST REPORT:

Name:                   00000.MPLS
Length:                 1:25:58.111 (h:m:s.ms)
Size:                   29 481 044 736 bytes
Total Bitrate:          45,72 Mbps

VIDEO:

Codec                   Bitrate             Description     
-----                   -------             -----------     
MPEG-4 AVC Video        32641 kbps          1080p / 23,976 fps / 16:9 / High Profile 4.1

AUDIO:

Codec                           Language        Bitrate         Description     
-----                           --------        -------         -----------     
Dolby TrueHD Audio              English         3324 kbps       5.1 / 48 kHz / 3324 kbps / 24-bit (AC3 Embedded: 5.1 / 48 kHz / 640 kbps)
Dolby Digital Audio             German          640 kbps        5.1 / 48 kHz / 640 kbps
Dolby Digital Audio             Spanish         640 kbps        5.1 / 48 kHz / 640 kbps
Dolby Digital Audio             Hebrew          640 kbps        5.1 / 48 kHz / 640 kbps
Dolby Digital Audio             Italian         640 kbps        5.1 / 48 kHz / 640 kbps
Dolby Digital Audio             Portuguese      640 kbps        5.1 / 48 kHz / 640 kbps
Dolby Digital Audio             Russian         640 kbps        5.1 / 48 kHz / 640 kbps
Dolby Digital Audio             Turkish         640 kbps        5.1 / 48 kHz / 640 kbps
Dolby Digital Audio             English         224 kbps        2.0 / 48 kHz / 224 kbps / Dolby Surround

SUBTITLES:

Codec                           Language        Bitrate         Description     
-----                           --------        -------         -----------     
Presentation Graphics           German          44,070 kbps                     
Presentation Graphics           Estonian        34,998 kbps                     
Presentation Graphics           English         39,922 kbps                     
Presentation Graphics           Spanish         38,557 kbps                     
Presentation Graphics           Hebrew          25,313 kbps                     
Presentation Graphics           Italian         38,761 kbps                     
Presentation Graphics           Latvian         30,026 kbps                     
Presentation Graphics           Lithuanian      31,828 kbps                     
Presentation Graphics           Portuguese      41,803 kbps                     
Presentation Graphics           Russian         39,966 kbps                     
Presentation Graphics           Romanian        35,918 kbps                     
Presentation Graphics           Turkish         43,593 kbps                     
Presentation Graphics           Ukrainian       40,451 kbps                     
Presentation Graphics           German          0,038 kbps                     
Presentation Graphics           Hebrew          0,031 kbps                     
Presentation Graphics           Italian         0,038 kbps                     
Presentation Graphics           Russian         0,037 kbps                     
Presentation Graphics           Turkish         0,037 kbps                     
Presentation Graphics           Spanish         0,036 kbps                     
Presentation Graphics           English         74,660 kbps                     
Presentation Graphics           German          58,398 kbps                     
Presentation Graphics           English         57,540 kbps                     
Presentation Graphics           Spanish         51,543 kbps                     
Presentation Graphics           Portuguese      60,332 kbps                     
Presentation Graphics           Italian         51,768 kbps                     
Presentation Graphics           Russian         57,580 kbps                     

FILES:

Name            Time In         Length          Size            Total Bitrate   
----            -------         ------          ----            -------------   
00004.M2TS      0:00:00.000     1:25:58.111     29 481 044 736  45 724         

CHAPTERS:

Number          Time In         Length          Avg Video Rate  Max 1-Sec Rate  Max 1-Sec Time  Max 5-Sec Rate  Max 5-Sec Time  Max 10Sec Rate  Max 10Sec Time  Avg Frame Size  Max Frame Size  Max Frame Time 
------          -------         ------          --------------  --------------  --------------  --------------  --------------  --------------  --------------  --------------  --------------  -------------- 
1               0:00:00.000     0:05:34.167     32 988 kbps     40 211 kbps     00:00:45.920    35 579 kbps     00:03:55.526    34 743 kbps     00:00:36.911    171 964 bytes   867 045 bytes   00:02:38.741   
2               0:05:34.167     0:03:01.306     33 930 kbps     38 918 kbps     00:07:44.172    35 421 kbps     00:07:40.168    34 882 kbps     00:07:35.163    176 895 bytes   882 415 bytes   00:07:45.131   
3               0:08:35.473     0:04:04.619     33 723 kbps     38 433 kbps     00:08:40.061    35 121 kbps     00:08:36.057    34 576 kbps     00:10:21.454    175 816 bytes   568 057 bytes   00:09:29.819   
4               0:12:40.092     0:05:16.774     33 386 kbps     38 340 kbps     00:16:48.924    34 867 kbps     00:13:47.117    34 496 kbps     00:14:01.924    174 058 bytes   585 728 bytes   00:16:54.513   
5               0:17:56.867     0:04:35.817     33 586 kbps     39 308 kbps     00:18:50.087    35 226 kbps     00:18:46.250    34 698 kbps     00:20:19.843    175 101 bytes   744 463 bytes   00:20:30.771   
6               0:22:32.684     0:04:23.930     31 853 kbps     42 482 kbps     00:24:08.196    34 943 kbps     00:25:08.173    34 593 kbps     00:25:03.168    166 069 bytes   537 132 bytes   00:26:56.615   
7               0:26:56.615     0:04:01.241     33 706 kbps     41 918 kbps     00:29:36.065    35 532 kbps     00:29:32.061    34 607 kbps     00:29:27.056    175 729 bytes   591 304 bytes   00:28:47.600   
8               0:30:57.856     0:04:33.022     33 408 kbps     38 579 kbps     00:34:38.493    34 874 kbps     00:34:27.982    34 543 kbps     00:34:01.205    174 172 bytes   562 325 bytes   00:35:06.145   
9               0:35:30.878     0:04:35.692     33 673 kbps     37 172 kbps     00:38:30.516    34 858 kbps     00:38:26.554    34 487 kbps     00:36:20.094    175 555 bytes   478 206 bytes   00:35:59.073   
10              0:40:06.570     0:04:28.226     33 970 kbps     39 017 kbps     00:44:09.855    34 892 kbps     00:42:50.901    34 586 kbps     00:40:36.434    177 104 bytes   581 838 bytes   00:40:10.866   
11              0:44:34.797     0:04:17.548     32 714 kbps     39 899 kbps     00:48:39.583    35 148 kbps     00:48:35.621    34 723 kbps     00:48:30.616    170 556 bytes   771 042 bytes   00:44:53.357   
12              0:48:52.346     0:03:26.497     34 017 kbps     36 323 kbps     00:49:58.912    34 672 kbps     00:49:14.910    34 491 kbps     00:50:39.327    177 350 bytes   440 125 bytes   00:52:13.171   
13              0:52:18.844     0:04:56.713     33 674 kbps     36 839 kbps     00:56:24.214    34 661 kbps     00:52:31.022    34 365 kbps     00:54:30.225    175 561 bytes   486 524 bytes   00:53:07.392   
14              0:57:15.557     0:05:01.175     33 023 kbps     43 936 kbps     01:01:53.418    35 320 kbps     00:59:18.846    34 649 kbps     00:59:13.758    172 164 bytes   591 068 bytes   01:01:31.020   
15              1:02:16.733     0:04:39.821     33 601 kbps     37 511 kbps     01:04:06.843    35 061 kbps     01:02:26.367    34 498 kbps     01:02:21.279    175 178 bytes   614 596 bytes   01:05:28.799   
16              1:06:56.554     0:05:40.548     33 645 kbps     41 061 kbps     01:10:15.336    35 396 kbps     01:07:59.617    34 879 kbps     01:09:41.385    175 408 bytes   587 698 bytes   01:08:42.409   
17              1:12:37.102     0:03:43.014     33 726 kbps     37 111 kbps     01:12:59.124    34 800 kbps     01:14:30.716    34 576 kbps     01:14:25.377    175 831 bytes   491 019 bytes   01:13:00.084   
18              1:16:20.117     0:01:58.535     33 629 kbps     37 634 kbps     01:17:22.679    34 739 kbps     01:17:22.763    34 497 kbps     01:16:59.823    175 326 bytes   479 518 bytes   01:17:16.173   
19              1:18:18.652     0:00:51.384     33 161 kbps     36 362 kbps     01:19:02.237    34 688 kbps     01:18:21.029    34 463 kbps     01:18:20.779    172 888 bytes   504 981 bytes   01:19:03.029   
20              1:19:10.036     0:06:48.074     23 495 kbps     47 077 kbps     01:25:48.810    34 557 kbps     01:21:46.693    34 046 kbps     01:24:25.435    122 505 bytes   557 774 bytes   01:25:54.315   

STREAM DIAGNOSTICS:

File            PID             Type            Codec           Language                Seconds                 Bitrate                 Bytes           Packets         
----            ---             ----            -----           --------                --------------          --------------          -------------   -----           
00004.M2TS      4113 (0x1011)   0x1B            AVC                                     5157,944                32 642                  21 045 564 335  114 449 711     
00004.M2TS      4352 (0x1100)   0x83            TrueHD          eng (English)           5157,944                3 964                   2 555 982 432   17 821 257     
00004.M2TS      4353 (0x1101)   0x81            AC3             deu (German)            5157,944                640                     412 646 400     2 417 861       
00004.M2TS      4354 (0x1102)   0x81            AC3             spa (Spanish)           5157,944                640                     412 646 400     2 417 861       
00004.M2TS      4355 (0x1103)   0x81            AC3             heb (Hebrew)            5157,944                640                     412 646 400     2 417 861       
00004.M2TS      4356 (0x1104)   0x81            AC3             ita (Italian)           5157,944                640                     412 646 400     2 417 861       
00004.M2TS      4357 (0x1105)   0x81            AC3             por (Portuguese)        5157,944                640                     412 646 400     2 417 861       
00004.M2TS      4358 (0x1106)   0x81            AC3             rus (Russian)           5157,944                640                     412 646 400     2 417 860       
00004.M2TS      4359 (0x1107)   0x81            AC3             tur (Turkish)           5157,944                640                     412 646 400     2 417 860       
00004.M2TS      4360 (0x1108)   0x81            AC3             eng (English)           5157,944                224                     144 427 136     805 955         
00004.M2TS      4608 (0x1200)   0x90            PGS             deu (German)            5157,944                44                      28 415 008      162 926         
00004.M2TS      4609 (0x1201)   0x90            PGS             est (Estonian)          5157,944                35                      22 565 177      130 662         
00004.M2TS      4610 (0x1202)   0x90            PGS             eng (English)           5157,944                40                      25 740 512      148 050         
00004.M2TS      4611 (0x1203)   0x90            PGS             spa (Spanish)           5157,944                39                      24 860 152      143 535         
00004.M2TS      4612 (0x1204)   0x90            PGS             heb (Hebrew)            5157,944                25                      16 320 919      97 227         
00004.M2TS      4613 (0x1205)   0x90            PGS             ita (Italian)           5157,944                39                      24 991 663      144 312         
00004.M2TS      4614 (0x1206)   0x90            PGS             lav (Latvian)           5157,944                30                      19 360 003      112 415         
00004.M2TS      4615 (0x1207)   0x90            PGS             lit (Lithuanian)        5157,944                32                      20 521 276      119 104         
00004.M2TS      4616 (0x1208)   0x90            PGS             por (Portuguese)        5157,944                42                      26 952 813      155 113         
00004.M2TS      4617 (0x1209)   0x90            PGS             rus (Russian)           5157,944                40                      25 768 838      148 646         
00004.M2TS      4618 (0x120A)   0x90            PGS             ron (Romanian)          5157,944                36                      23 158 741      134 092         
00004.M2TS      4619 (0x120B)   0x90            PGS             tur (Turkish)           5157,944                44                      28 106 999      161 348         
00004.M2TS      4620 (0x120C)   0x90            PGS             ukr (Ukrainian)         5157,944                40                      26 081 265      150 063         
00004.M2TS      4621 (0x120D)   0x90            PGS             deu (German)            5157,944                0                       24 644          148             
00004.M2TS      4622 (0x120E)   0x90            PGS             heb (Hebrew)            5157,944                0                       19 707          122             
00004.M2TS      4623 (0x120F)   0x90            PGS             ita (Italian)           5157,944                0                       24 822          149             
00004.M2TS      4624 (0x1210)   0x90            PGS             rus (Russian)           5157,944                0                       24 046          144             
00004.M2TS      4625 (0x1211)   0x90            PGS             tur (Turkish)           5157,944                0                       23 682          143             
00004.M2TS      4626 (0x1212)   0x90            PGS             spa (Spanish)           5157,944                0                       23 352          140             
00004.M2TS      4627 (0x1213)   0x90            PGS             eng (English)           5157,944                75                      48 138 246      274 147         
00004.M2TS      4628 (0x1214)   0x90            PGS             deu (German)            5157,944                58                      37 652 790      213 561         
00004.M2TS      4629 (0x1215)   0x90            PGS             eng (English)           5157,944                58                      37 099 800      210 118         
00004.M2TS      4630 (0x1216)   0x90            PGS             spa (Spanish)           5157,944                52                      33 232 934      189 524         
00004.M2TS      4631 (0x1217)   0x90            PGS             por (Portuguese)        5157,944                60                      38 899 708      220 548         
00004.M2TS      4632 (0x1218)   0x90            PGS             ita (Italian)           5157,944                52                      33 378 379      190 330         
00004.M2TS      4633 (0x1219)   0x90            PGS             rus (Russian)           5157,944                58                      37 125 449      210 858         

[/code]
<---- END FORUMS PASTE ---->

Код:

Disc Title:     Madagascar.Escape.2.Africa.2008.1080p.Blu-Ray.AVC.TrueHD.5.1
Disc Size:      43 739 648 670 bytes
Protection:     AACS
BD-Java:        Yes
BDInfo:         0.5.8

Notes:         

BDINFO HOME:
  Cinema Squid
    http://www.cinemasquid.com/blu-ray/tools/bdinfo

INCLUDES FORUMS REPORT FOR:
  AVS Forum Blu-ray Audio and Video Specifications Thread
    http://www.avsforum.com/avs-vb/showthread.php?t=1155731

********************
PLAYLIST: 00002.MPLS
********************

<--- BEGIN FORUMS PASTE --->
[code]
                                                                                                                Total   Video                                             
Title                                                           Codec   Length  Movie Size      Disc Size       Bitrate Bitrate Main Audio Track                          Secondary Audio Track
-----                                                           ------  ------- --------------  --------------  ------- ------- ------------------                        ---------------------
00002.MPLS                                                      AVC     1:29:24 29 601 533 952  43 739 648 670  44,15   29,38   Dolby TrueHD 5.1 3364Kbps (48kHz/24-bit) 
[/code]

[code]

DISC INFO:

Disc Title:     Madagascar.Escape.2.Africa.2008.1080p.Blu-Ray.AVC.TrueHD.5.1
Disc Size:      43 739 648 670 bytes
Protection:     AACS
BD-Java:        Yes
BDInfo:         0.5.8

PLAYLIST REPORT:

Name:                   00002.MPLS
Length:                 1:29:24.400 (h:m:s.ms)
Size:                   29 601 533 952 bytes
Total Bitrate:          44,15 Mbps

VIDEO:

Codec                   Bitrate             Description     
-----                   -------             -----------     
MPEG-4 AVC Video        29375 kbps          1080p / 23,976 fps / 16:9 / High Profile 4.1
MPEG-4 AVC Video        2012 kbps           480p / 23,976 fps / 16:9 / High Profile 3.2

AUDIO:

Codec                           Language        Bitrate         Description     
-----                           --------        -------         -----------     
Dolby TrueHD Audio              English         3364 kbps       5.1 / 48 kHz / 3364 kbps / 24-bit (AC3 Embedded: 5.1 / 48 kHz / 640 kbps)
Dolby Digital Audio             Latvian         640 kbps        5.1 / 48 kHz / 640 kbps
Dolby Digital Audio             Hebrew          640 kbps        5.1 / 48 kHz / 640 kbps
Dolby Digital Audio             English         224 kbps        2.0 / 48 kHz / 224 kbps
Dolby Digital Plus Audio        English         192 kbps        2.0 / 48 kHz / 192 kbps
Dolby Digital Audio             Lithuanian      640 kbps        5.1 / 48 kHz / 640 kbps
Dolby Digital Audio             Russian         640 kbps        5.1 / 48 kHz / 640 kbps
Dolby Digital Audio             Romanian        640 kbps        5.1 / 48 kHz / 640 kbps
Dolby Digital Audio             Estonian        640 kbps        5.1 / 48 kHz / 640 kbps
Dolby Digital Audio             Ukrainian       640 kbps        5.1 / 48 kHz / 640 kbps

SUBTITLES:

Codec                           Language        Bitrate         Description     
-----                           --------        -------         -----------     
Presentation Graphics           Estonian        38,786 kbps                     
Presentation Graphics           English         51,485 kbps                     
Presentation Graphics           Hebrew          28,521 kbps                     
Presentation Graphics           Latvian         33,346 kbps                     
Presentation Graphics           Lithuanian      40,943 kbps                     
Presentation Graphics           Russian         38,756 kbps                     
Presentation Graphics           Romanian        35,780 kbps                     
Presentation Graphics           Ukrainian       37,445 kbps                     
Presentation Graphics           English         40,130 kbps                     
Presentation Graphics           Russian         47,997 kbps                     
Presentation Graphics           Estonian        0,022 kbps                     
Presentation Graphics           English         0,018 kbps                     
Presentation Graphics           Hebrew          0,021 kbps                     
Presentation Graphics           Latvian         0,022 kbps                     
Presentation Graphics           Lithuanian      0,018 kbps                     
Presentation Graphics           Russian         0,033 kbps                     
Presentation Graphics           Romanian        0,023 kbps                     
Presentation Graphics           Ukrainian       0,018 kbps                     
Presentation Graphics           English         99,980 kbps                     

FILES:

Name            Time In         Length          Size            Total Bitrate   
----            -------         ------          ----            -------------   
00003.M2TS      0:00:00.000     1:29:24.400     29 601 533 952  44 145         

CHAPTERS:

Number          Time In         Length          Avg Video Rate  Max 1-Sec Rate  Max 1-Sec Time  Max 5-Sec Rate  Max 5-Sec Time  Max 10Sec Rate  Max 10Sec Time  Avg Frame Size  Max Frame Size  Max Frame Time 
------          -------         ------          --------------  --------------  --------------  --------------  --------------  --------------  --------------  --------------  --------------  -------------- 
1               0:00:00.000     0:04:15.880     29 147 kbps     35 672 kbps     00:02:48.585    31 559 kbps     00:01:50.944    31 248 kbps     00:02:26.396    151 934 bytes   760 252 bytes   00:02:49.419   
2               0:04:15.880     0:02:30.733     28 313 kbps     34 062 kbps     00:04:18.841    31 865 kbps     00:04:27.183    31 356 kbps     00:05:57.315    147 610 bytes   569 833 bytes   00:06:07.742   
3               0:06:46.614     0:02:39.159     30 499 kbps     34 987 kbps     00:07:24.193    31 744 kbps     00:07:20.189    31 285 kbps     00:07:15.184    159 010 bytes   616 011 bytes   00:09:13.386   
4               0:09:25.773     0:06:26.177     29 620 kbps     35 823 kbps     00:10:37.303    31 738 kbps     00:10:29.045    31 313 kbps     00:09:26.440    154 426 bytes   805 034 bytes   00:10:38.179   
5               0:15:51.951     0:01:42.811     30 010 kbps     34 658 kbps     00:17:26.128    31 791 kbps     00:15:57.873    31 228 kbps     00:15:53.786    156 461 bytes   605 152 bytes   00:17:27.463   
6               0:17:34.762     0:02:52.172     29 723 kbps     38 409 kbps     00:18:07.169    31 685 kbps     00:18:03.165    31 350 kbps     00:19:36.175    154 961 bytes   784 506 bytes   00:18:42.746   
7               0:20:26.934     0:03:30.418     29 389 kbps     33 747 kbps     00:23:22.317    31 706 kbps     00:23:18.188    31 312 kbps     00:23:18.105    153 219 bytes   669 022 bytes   00:20:34.983   
8               0:23:57.352     0:04:06.204     30 033 kbps     34 044 kbps     00:26:55.155    31 618 kbps     00:25:43.750    31 274 kbps     00:27:43.453    156 576 bytes   603 355 bytes   00:26:58.825   
9               0:28:03.556     0:02:55.341     29 308 kbps     36 135 kbps     00:30:49.305    31 485 kbps     00:29:18.256    31 267 kbps     00:28:21.157    152 801 bytes   919 361 bytes   00:30:53.268   
10              0:30:58.898     0:02:54.007     30 190 kbps     34 168 kbps     00:33:36.389    31 555 kbps     00:31:40.023    31 300 kbps     00:33:00.019    157 399 bytes   643 248 bytes   00:33:37.390   
11              0:33:52.905     0:01:27.003     30 096 kbps     33 791 kbps     00:35:17.323    31 483 kbps     00:35:06.437    31 298 kbps     00:35:01.390    156 906 bytes   558 801 bytes   00:35:19.408   
12              0:35:19.909     0:02:55.508     29 117 kbps     35 544 kbps     00:36:45.578    31 712 kbps     00:35:40.388    31 347 kbps     00:35:35.383    151 803 bytes   678 720 bytes   00:36:51.334   
13              0:38:15.418     0:04:44.492     30 296 kbps     37 456 kbps     00:41:35.868    31 857 kbps     00:41:31.739    31 436 kbps     00:41:26.859    157 950 bytes   698 132 bytes   00:42:57.324   
14              0:42:59.910     0:02:36.030     28 926 kbps     37 263 kbps     00:44:51.522    32 169 kbps     00:44:47.518    31 549 kbps     00:44:42.513    150 804 bytes   571 719 bytes   00:45:16.797   
15              0:45:35.941     0:03:46.976     29 554 kbps     34 810 kbps     00:45:50.330    31 656 kbps     00:48:48.925    31 269 kbps     00:46:02.259    154 082 bytes   552 304 bytes   00:48:30.866   
16              0:49:22.918     0:02:54.340     30 528 kbps     35 954 kbps     00:52:00.534    32 087 kbps     00:50:28.483    31 480 kbps     00:49:29.716    159 160 bytes   810 842 bytes   00:50:45.500   
17              0:52:17.259     0:03:00.513     29 685 kbps     34 405 kbps     00:55:08.680    31 665 kbps     00:55:04.718    31 154 kbps     00:55:04.592    154 766 bytes   510 606 bytes   00:55:11.433   
18              0:55:17.772     0:02:42.036     30 379 kbps     35 136 kbps     00:56:57.247    31 788 kbps     00:56:57.205    31 295 kbps     00:57:18.977    158 382 bytes   661 904 bytes   00:56:38.728   
19              0:57:59.809     0:05:28.828     29 282 kbps     35 935 kbps     01:03:16.292    31 879 kbps     00:59:15.426    31 459 kbps     00:58:52.654    152 662 bytes   733 603 bytes   00:59:18.888   
20              1:03:28.638     0:03:05.310     29 927 kbps     34 584 kbps     01:06:26.565    31 694 kbps     01:05:45.483    31 362 kbps     01:05:40.853    156 027 bytes   648 048 bytes   01:05:53.491   
21              1:06:33.948     0:08:43.940     29 415 kbps     37 510 kbps     01:14:13.240    31 966 kbps     01:09:22.491    31 237 kbps     01:11:22.486    153 355 bytes   935 513 bytes   01:15:06.460   
22              1:15:17.888     0:04:30.186     30 145 kbps     36 305 kbps     01:19:46.239    32 008 kbps     01:19:42.235    31 568 kbps     01:19:37.230    157 164 bytes   600 044 bytes   01:16:44.891   
23              1:19:48.074     0:09:36.325     26 867 kbps     39 676 kbps     01:21:04.651    32 155 kbps     01:20:56.601    31 540 kbps     01:20:16.561    140 083 bytes   903 519 bytes   01:29:14.849   

STREAM DIAGNOSTICS:

File            PID             Type            Codec           Language                Seconds                 Bitrate                 Bytes           Packets         
----            ---             ----            -----           --------                --------------          --------------          -------------   -----           
00003.M2TS      4113 (0x1011)   0x1B            AVC                                     5364,234                29 376                  19 697 469 419  107 126 933     
00003.M2TS      4352 (0x1100)   0x83            TrueHD          eng (English)           5364,234                4 004                   2 685 035 658   18 228 680     
00003.M2TS      4353 (0x1101)   0x81            AC3             lav (Latvian)           5364,234                640                     429 153 280     2 514 570       
00003.M2TS      4354 (0x1102)   0x81            AC3             heb (Hebrew)            5364,234                640                     429 153 280     2 514 570       
00003.M2TS      4355 (0x1103)   0x81            AC3             eng (English)           5364,234                224                     150 203 648     838 190         
00003.M2TS      4356 (0x1104)   0x81            AC3             lit (Lithuanian)        5364,234                640                     429 153 280     2 514 570       
00003.M2TS      4357 (0x1105)   0x81            AC3             rus (Russian)           5364,234                640                     429 153 280     2 514 570       
00003.M2TS      4358 (0x1106)   0x81            AC3             ron (Romanian)          5364,234                640                     429 153 280     2 514 570       
00003.M2TS      4359 (0x1107)   0x81            AC3             est (Estonian)          5364,234                640                     429 153 280     2 514 570       
00003.M2TS      4360 (0x1108)   0x81            AC3             ukr (Ukrainian)         5364,234                640                     429 153 280     2 514 570       
00003.M2TS      4608 (0x1200)   0x90            PGS             est (Estonian)          5364,234                39                      26 008 142      150 133         
00003.M2TS      4609 (0x1201)   0x90            PGS             eng (English)           5364,234                51                      34 523 393      195 278         
00003.M2TS      4610 (0x1202)   0x90            PGS             heb (Hebrew)            5364,234                29                      19 125 073      112 607         
00003.M2TS      4611 (0x1203)   0x90            PGS             lav (Latvian)           5364,234                33                      22 360 331      130 086         
00003.M2TS      4612 (0x1204)   0x90            PGS             lit (Lithuanian)        5364,234                41                      27 454 528      157 870         
00003.M2TS      4613 (0x1205)   0x90            PGS             rus (Russian)           5364,234                39                      25 987 802      150 185         
00003.M2TS      4614 (0x1206)   0x90            PGS             ron (Romanian)          5364,234                36                      23 992 382      139 118         
00003.M2TS      4615 (0x1207)   0x90            PGS             ukr (Ukrainian)         5364,234                37                      25 108 962      145 228         
00003.M2TS      4616 (0x1208)   0x90            PGS             eng (English)           5364,234                40                      26 909 207      155 062         
00003.M2TS      4617 (0x1209)   0x90            PGS             rus (Russian)           5364,234                48                      32 184 611      182 799         
00003.M2TS      4618 (0x120A)   0x90            PGS             est (Estonian)          5364,234                0                       15 053          89             
00003.M2TS      4619 (0x120B)   0x90            PGS             eng (English)           5364,234                0                       11 747          70             
00003.M2TS      4620 (0x120C)   0x90            PGS             heb (Hebrew)            5364,234                0                       14 319          85             
00003.M2TS      4621 (0x120D)   0x90            PGS             lav (Latvian)           5364,234                0                       14 574          86             
00003.M2TS      4622 (0x120E)   0x90            PGS             lit (Lithuanian)        5364,234                0                       12 393          74             
00003.M2TS      4623 (0x120F)   0x90            PGS             rus (Russian)           5364,234                0                       21 983          127             
00003.M2TS      4624 (0x1210)   0x90            PGS             ron (Romanian)          5364,234                0                       15 323          90             
00003.M2TS      4625 (0x1211)   0x90            PGS             ukr (Ukrainian)         5364,234                0                       12 318          73             
00003.M2TS      4626 (0x1212)   0x90            PGS             eng (English)           5364,234                100                     67 041 425      380 821         
00003.M2TS      6656 (0x1A00)   0xA1            AC3+            eng (English)           5364,234                192                     128 745 984     838 190         
00003.M2TS      6912 (0x1B00)   0x1B            AVC                                     5364,234                2 012                   1 349 007 615   7 403 967       

[/code]
<---- END FORUMS PASTE ---->

Код:

Disc Title:     MADAGASCAR_3
Disc Size:      41 726 762 354 bytes
Protection:     AACS
BD-Java:        Yes
BDInfo:         0.5.8

Notes:         

BDINFO HOME:
  Cinema Squid
    http://www.cinemasquid.com/blu-ray/tools/bdinfo

INCLUDES FORUMS REPORT FOR:
  AVS Forum Blu-ray Audio and Video Specifications Thread
    http://www.avsforum.com/avs-vb/showthread.php?t=1155731

********************
PLAYLIST: 00000.MPLS
********************

<--- BEGIN FORUMS PASTE --->
[code]
                                                                                                                Total   Video                                             
Title                                                           Codec   Length  Movie Size      Disc Size       Bitrate Bitrate Main Audio Track                          Secondary Audio Track
-----                                                           ------  ------- --------------  --------------  ------- ------- ------------------                        ---------------------
00000.MPLS                                                      AVC     1:33:24 31 031 476 224  41 726 762 354  44,30   27,02   Dolby TrueHD 7.1 4573Kbps (48kHz/24-bit) 
[/code]

[code]

DISC INFO:

Disc Title:     MADAGASCAR_3
Disc Size:      41 726 762 354 bytes
Protection:     AACS
BD-Java:        Yes
BDInfo:         0.5.8

PLAYLIST REPORT:

Name:                   00000.MPLS
Length:                 1:33:24.181 (h:m:s.ms)
Size:                   31 031 476 224 bytes
Total Bitrate:          44,30 Mbps

VIDEO:

Codec                   Bitrate             Description     
-----                   -------             -----------     
MPEG-4 AVC Video        27022 kbps          1080p / 23,976 fps / 16:9 / High Profile 4.1
MPEG-4 AVC Video        3271 kbps           480p / 23,976 fps / 16:9 / High Profile 3.2

AUDIO:

Codec                           Language        Bitrate         Description     
-----                           --------        -------         -----------     
Dolby TrueHD Audio              English         4573 kbps       7.1 / 48 kHz / 4573 kbps / 24-bit (AC3 Embedded: 5.1 / 48 kHz / 640 kbps / DN -4dB)
Dolby Digital Audio             Bulgarian       640 kbps        5.1 / 48 kHz / 640 kbps / DN -4dB
Dolby Digital Audio             Estonian        640 kbps        5.1 / 48 kHz / 640 kbps / DN -4dB
Dolby Digital Audio             Russian         640 kbps        5.1 / 48 kHz / 640 kbps / DN -4dB
Dolby Digital Audio             English         224 kbps        2.0 / 48 kHz / 224 kbps / DN -4dB
Dolby Digital Plus Audio        English         224 kbps        2.0 / 48 kHz / 224 kbps
Dolby Digital Audio             Latvian         640 kbps        5.1 / 48 kHz / 640 kbps / DN -4dB
Dolby Digital Audio             Lithuanian      640 kbps        5.1 / 48 kHz / 640 kbps / DN -4dB
Dolby Digital Audio             Turkish         640 kbps        5.1 / 48 kHz / 640 kbps / DN -4dB
Dolby Digital Audio             Ukrainian       640 kbps        5.1 / 48 kHz / 640 kbps / DN -4dB

SUBTITLES:

Codec                           Language        Bitrate         Description     
-----                           --------        -------         -----------     
Presentation Graphics           English         25,124 kbps                     
Presentation Graphics           Bulgarian       43,632 kbps                     
Presentation Graphics           English         44,821 kbps                     
Presentation Graphics           Estonian        43,506 kbps                     
Presentation Graphics           Latvian         45,288 kbps                     
Presentation Graphics           Lithuanian      42,935 kbps                     
Presentation Graphics           Russian         45,115 kbps                     
Presentation Graphics           Turkish         43,609 kbps                     
Presentation Graphics           English         71,144 kbps                     
Presentation Graphics           Bulgarian       0,918 kbps                     
Presentation Graphics           Estonian        0,777 kbps                     
Presentation Graphics           Latvian         0,898 kbps                     
Presentation Graphics           Lithuanian      0,825 kbps                     
Presentation Graphics           Russian         0,714 kbps                     
Presentation Graphics           Turkish         0,616 kbps                     
Presentation Graphics           Ukrainian       40,358 kbps                     
Presentation Graphics           Ukrainian       0,801 kbps                     

FILES:

Name            Time In         Length          Size            Total Bitrate   
----            -------         ------          ----            -------------   
01118.M2TS      0:00:00.000     1:33:24.181     31 031 476 224  44 298         

CHAPTERS:

Number          Time In         Length          Avg Video Rate  Max 1-Sec Rate  Max 1-Sec Time  Max 5-Sec Rate  Max 5-Sec Time  Max 10Sec Rate  Max 10Sec Time  Avg Frame Size  Max Frame Size  Max Frame Time 
------          -------         ------          --------------  --------------  --------------  --------------  --------------  --------------  --------------  --------------  --------------  -------------- 
1               0:00:00.000     0:05:16.315     26 997 kbps     34 720 kbps     00:02:31.860    30 394 kbps     00:00:44.544    30 093 kbps     00:02:22.851    140 732 bytes   638 650 bytes   00:02:47.208   
2               0:05:16.315     0:05:35.668     27 332 kbps     37 290 kbps     00:07:27.822    31 421 kbps     00:07:23.818    30 491 kbps     00:07:18.813    142 496 bytes   639 018 bytes   00:06:02.528   
3               0:10:51.984     0:08:54.325     27 817 kbps     34 731 kbps     00:19:01.098    30 745 kbps     00:16:53.637    30 180 kbps     00:18:12.549    145 026 bytes   635 959 bytes   00:17:16.618   
4               0:19:46.310     0:08:03.524     26 348 kbps     34 318 kbps     00:22:20.714    30 450 kbps     00:27:27.312    30 103 kbps     00:27:27.145    137 364 bytes   636 554 bytes   00:27:37.155   
5               0:27:49.834     0:05:00.717     28 128 kbps     34 124 kbps     00:32:36.371    30 742 kbps     00:30:43.258    30 106 kbps     00:30:01.549    146 647 bytes   634 298 bytes   00:30:00.882   
6               0:32:50.551     0:07:44.422     25 716 kbps     36 174 kbps     00:32:56.683    30 274 kbps     00:34:05.918    29 597 kbps     00:33:48.526    134 071 bytes   627 972 bytes   00:35:41.264   
7               0:40:34.974     0:06:17.001     26 945 kbps     35 540 kbps     00:44:41.845    30 950 kbps     00:44:37.841    30 033 kbps     00:44:46.600    140 479 bytes   502 243 bytes   00:45:42.823   
8               0:46:51.975     0:05:08.558     27 034 kbps     34 692 kbps     00:50:25.939    30 829 kbps     00:50:22.019    30 315 kbps     00:50:16.930    140 941 bytes   639 947 bytes   00:47:47.072   
9               0:52:00.534     0:06:54.622     27 382 kbps     35 318 kbps     00:52:48.707    30 572 kbps     00:52:01.201    30 168 kbps     00:54:24.177    142 755 bytes   638 256 bytes   00:52:30.605   
10              0:58:55.156     0:01:28.254     27 296 kbps     32 227 kbps     01:00:15.445    30 135 kbps     00:59:29.023    29 439 kbps     01:00:06.352    142 311 bytes   477 912 bytes   00:59:55.508   
11              1:00:23.411     0:03:55.902     26 963 kbps     32 749 kbps     01:03:27.011    30 310 kbps     01:03:23.090    29 953 kbps     01:02:00.174    140 573 bytes   538 077 bytes   01:02:41.549   
12              1:04:19.313     0:06:40.358     26 965 kbps     34 714 kbps     01:05:21.626    30 623 kbps     01:05:17.747    29 984 kbps     01:06:42.790    140 582 bytes   577 312 bytes   01:08:07.583   
13              1:10:59.672     0:04:30.645     26 025 kbps     33 545 kbps     01:12:19.877    30 272 kbps     01:14:05.691    29 807 kbps     01:11:57.563    135 681 bytes   640 861 bytes   01:12:33.849   
14              1:15:30.317     0:05:39.464     27 336 kbps     34 745 kbps     01:18:00.509    30 706 kbps     01:17:56.421    30 223 kbps     01:17:51.416    142 517 bytes   586 431 bytes   01:16:05.310   
15              1:21:09.781     0:01:38.848     28 589 kbps     36 423 kbps     01:21:34.723    30 963 kbps     01:21:30.760    30 415 kbps     01:21:25.714    149 052 bytes   636 401 bytes   01:22:14.346   
16              1:22:48.630     0:10:35.551     26 986 kbps     36 596 kbps     01:23:07.774    30 406 kbps     01:23:15.991    29 904 kbps     01:31:27.106    140 702 bytes   524 035 bytes   01:33:20.928   

STREAM DIAGNOSTICS:

File            PID             Type            Codec           Language                Seconds                 Bitrate                 Bytes           Packets         
----            ---             ----            -----           --------                --------------          --------------          -------------   -----           
01118.M2TS      4113 (0x1011)   0x1B            AVC                                     5604,015                27 023                  18 929 623 341  102 957 006     
01118.M2TS      4352 (0x1100)   0x83            TrueHD          eng (English)           5604,015                5 213                   3 651 861 940   23 943 229     
01118.M2TS      4353 (0x1101)   0x81            AC3             bul (Bulgarian)         5604,015                640                     448 335 360     2 626 965       
01118.M2TS      4354 (0x1102)   0x81            AC3             est (Estonian)          5604,015                640                     448 335 360     2 626 965       
01118.M2TS      4355 (0x1103)   0x81            AC3             rus (Russian)           5604,015                640                     448 335 360     2 626 965       
01118.M2TS      4356 (0x1104)   0x81            AC3             eng (English)           5604,015                224                     156 917 376     875 655         
01118.M2TS      4357 (0x1105)   0x81            AC3             lav (Latvian)           5604,015                640                     448 335 360     2 626 965       
01118.M2TS      4358 (0x1106)   0x81            AC3             lit (Lithuanian)        5604,015                640                     448 335 360     2 626 965       
01118.M2TS      4359 (0x1107)   0x81            AC3             tur (Turkish)           5604,015                640                     448 335 360     2 626 965       
01118.M2TS      4360 (0x1108)   0x81            AC3             ukr (Ukrainian)         5604,015                640                     448 335 360     2 626 965       
01118.M2TS      4608 (0x1200)   0x90            PGS             eng (English)           5604,015                25                      17 599 862      108 872         
01118.M2TS      4609 (0x1201)   0x90            PGS             bul (Bulgarian)         5604,015                44                      30 565 290      174 236         
01118.M2TS      4610 (0x1202)   0x90            PGS             eng (English)           5604,015                45                      31 398 243      178 577         
01118.M2TS      4611 (0x1203)   0x90            PGS             est (Estonian)          5604,015                44                      30 476 916      173 739         
01118.M2TS      4612 (0x1204)   0x90            PGS             lav (Latvian)           5604,015                45                      31 725 119      180 544         
01118.M2TS      4613 (0x1205)   0x90            PGS             lit (Lithuanian)        5604,015                43                      30 076 746      171 610         
01118.M2TS      4614 (0x1206)   0x90            PGS             rus (Russian)           5604,015                45                      31 603 742      179 876         
01118.M2TS      4615 (0x1207)   0x90            PGS             tur (Turkish)           5604,015                44                      30 549 211      174 203         
01118.M2TS      4616 (0x1208)   0x90            PGS             eng (English)           5604,015                71                      49 837 834      279 127         
01118.M2TS      4617 (0x1209)   0x90            PGS             bul (Bulgarian)         5604,015                1                       643 116         3 720           
01118.M2TS      4618 (0x120A)   0x90            PGS             est (Estonian)          5604,015                1                       544 357         3 157           
01118.M2TS      4619 (0x120B)   0x90            PGS             lav (Latvian)           5604,015                1                       628 942         3 641           
01118.M2TS      4620 (0x120C)   0x90            PGS             lit (Lithuanian)        5604,015                1                       578 037         3 348           
01118.M2TS      4621 (0x120D)   0x90            PGS             rus (Russian)           5604,015                1                       500 245         2 896           
01118.M2TS      4622 (0x120E)   0x90            PGS             tur (Turkish)           5604,015                1                       431 549         2 518           
01118.M2TS      4623 (0x120F)   0x90            PGS             ukr (Ukrainian)         5604,015                40                      28 271 860      161 779         
01118.M2TS      4624 (0x1210)   0x90            PGS             ukr (Ukrainian)         5604,015                1                       560 801         3 244           
01118.M2TS      6656 (0x1A00)   0xA1            AC3+            eng (English)           5604,015                224                     156 917 376     875 655         
01118.M2TS      6912 (0x1B00)   0x1B            AVC                                     5604,015                3 271                   2 291 471 814   12 529 478     

[/code]
<---- END FORUMS PASTE ---->

info [Профиль]  [ЛС] 
Показать сообщения:    
Ответить на тему

Текущее время: 03-Дек 08:43

Часовой пояс: GMT + 4



Вы не можете начинать темы
Вы не можете отвечать на сообщения
Вы не можете редактировать свои сообщения
Вы не можете удалять свои сообщения
Вы не можете голосовать в опросах
Вы не можете прикреплять файлы к сообщениям
Вы не можете скачивать файлы