Ошибка

Все сводится к F: Идеальный Инсайдер / Subete ga F ni Naru: The Perfect Insider [TV] [1-11 из 11] [2015] [приключения, детектив, мистика] [HDTV] [720p] [Профессиональный]

Ответить на тему
 
Автор Сообщение

NovA_JKE

Пол: Пол:Жен

Стаж: 6 лет 9 месяцев

Сообщений: 413

Антарктида
Рейтинг

post 12-Окт-2015 19:57 0[+]

[Цитировать] 

pic="http://savepic.ru/8029570.gif"
Все сводится к F: Идеальный Инсайдер | Subete ga F ni Naru: The Perfect Insider

Год выпуска: 2015
Страна: Япония
Жанр: приключения, детектив, мистика
Тип: TV
Продолжительность: 11 эп. x 25 мин.
Студия:
Режиссер: Камбэ Мамору
Автор оригинала: Мори Хироси
Релиз / Перевод: студия Kansai
Озвучивание: многоголосое закадровое


Описание: Сохэй Сайкава — сотрудник исследовательской лаборатории Сайкава — вместе с коллегами отправляется в оплачиваемый отпуск, где к ним присоединяется дочь наставника Сохэя по имени Моэ Нишиносоно, обладающая феноменальным аналитическим складом ума. Девушка не имеет отношения к лаборатории, в которой работает Сохэй, однако быстро находит с ним общий язык. После встречи друг с другом эти двое в конечном итоге натыкаются на труп одного из исследователей. И теперь они начинают работать вместе, чтобы узнать, кто стоит за этим загадочным убийством.
Дополнительная информация:


Качество: HDTV
Формат: mp4
Видео: h.264; 8 bit; 1280x720; 23,976 fps; ~2644 kbps
Аудио:
 1. RU: AAC-LC 2.0, 48 kHz, ~224 kbps
Субтитры: нет
РСВР (RARS): 16+
  1. White Meeting.
  2. Azure Encounter.
  3. Red Magic.
  4. The Rainbow-Colored Past.
  5. Silver Hope.
  6. Crimson Resolve.
  7. Gray Boundary.
  8. Purple Dawn.
  9. Yellow Blind Spot.
  10. Aster-Colored Truth.
  11. Colorless Weekend.

Код:

Общее
Полное имя                               : P:\NovA_JKE\Аниме\!DL Subete ga F ni Naru The Perfect Insider (Все сводится к F Идеальный Инсайдер) [HDTV, Студия Kansai]\Subete ga F ni Naru- The Perfect Insider.s01e01.HDTVRip.720p.Rus.Kansai.mp4
Формат                                   : MPEG-4
Профиль формата                          : Base Media
Идентификатор кодека                     : isom
Размер файла                             : 472 Мбайт
Продолжительность                        : 22 м.
Режим общего битрейта                    : Переменный
Общий поток                              : 2872 Кбит/сек
Дата кодирования                         : UTC 2015-10-12 11:44:22
Дата пометки                             : UTC 2015-10-12 11:44:22
Программа кодирования                    : Yamb 2.1.0.0 [http://yamb.unite-video.com]

Видео
Идентификатор                            : 1
Формат                                   : AVC
Формат/Информация                        : Advanced Video Codec
Профиль формата                          : High@L4.1
Параметр CABAC формата                   : Да
Параметр ReFrames формата                : 4 кадра
Идентификатор кодека                     : avc1
Идентификатор кодека/Информация          : Advanced Video Coding
Продолжительность                        : 22 м.
Битрейт                                  : 2644 Кбит/сек
Максимальный битрейт                     : 29,6 Мбит/сек
Ширина                                   : 1280 пикселей
Высота                                   : 720 пикселей
Соотношение сторон                       : 16:9
Режим частоты кадров                     : Постоянный
Частота кадров                           : 23,976 кадра/сек
Цветовое пространство                    : YUV
Субдискретизация насыщенности            : 4:2:0
Битовая глубина                          : 8 бит
Тип развёртки                            : Прогрессивная
Бит/(Пиксели*Кадры)                      : 0.120
Размер потока                            : 435 Мбайт (92%)
Заголовок                                : 264
Библиотека кодирования                   : x264 core 129 r2245+729M 1a52e03
Настройки программы                      : cabac=1 / ref=4 / deblock=1:1:-1 / analyse=0x3:0x113 / me=umh / subme=9 / psy=1 / fade_compensate=0.00 / psy_rd=1.00:0.00 / mixed_ref=1 / me_range=24 / chroma_me=1 / trellis=2 / 8x8dct=1 / cqm=0 / deadzone=21,11 / fast_pskip=1 / chroma_qp_offset=-2 / threads=8 / lookahead_threads=1 / sliced_threads=0 / nr=0 / decimate=1 / interlaced=0 / bluray_compat=0 / constrained_intra=0 / fgo=0 / bframes=9 / b_pyramid=2 / b_adapt=2 / b_bias=0 / direct=1 / weightb=1 / open_gop=0 / weightp=2 / keyint=240 / keyint_min=24 / scenecut=40 / intra_refresh=0 / rc=crf / mbtree=0 / crf=18.5 / qcomp=0.72 / qpmin=0 / qpmax=69 / qpstep=4 / ip_ratio=1.40 / pb_ratio=1.30 / aq=1:0.85
Дата кодирования                         : UTC 2015-10-08 18:53:33
Дата пометки                             : UTC 2015-10-12 11:44:37
Цветовой диапазон                        : Limited
Основные цвета                           : BT.709
Характеристики трансфера                 : BT.709
Коэффициенты матрицы                     : BT.709

Аудио
Идентификатор                            : 2
Формат                                   : AAC
Формат/Информация                        : Advanced Audio Codec
Профиль формата                          : LC
Идентификатор кодека                     : 40
Продолжительность                        : 22 м.
Вид битрейта                             : Переменный
Битрейт                                  : 224 Кбит/сек
Максимальный битрейт                     : 234 Кбит/сек
Каналы                                   : 2 канала
Расположение каналов                     : Front: L R
Частота                                  : 48,0 КГц
Метод сжатия                             : С потерями
Размер потока                            : 36,8 Мбайт (8%)
Заголовок                                : Kansai
Язык                                     : Russian
Дата кодирования                         : UTC 2015-10-12 11:44:37
Дата пометки                             : UTC 2015-10-12 11:44:37
info [Профиль]  [ЛС] 

Doktor_Strahov

Стаж: 2 года 5 месяцев

Сообщений: 13

Рейтинг

post 13-Окт-2015 01:57 (спустя 5 часов) [-]1[+]

[Цитировать] 

Офигенный перевод названия Улыбаюсь
info [Профиль]  [ЛС] 

NovA_JKE

Пол: Пол:Жен

Стаж: 6 лет 9 месяцев

Сообщений: 413

Антарктида
Рейтинг

post 19-Окт-2015 19:57 (спустя 6 дней) [-]0[+]

[Цитировать] 

Добавлена 2-я серия.
info [Профиль]  [ЛС] 

Брюн

Пол: Пол:Муж

Стаж: 4 года 3 месяца

Сообщений: 88

Россия
Рейтинг

post 19-Окт-2015 21:29 (спустя 1 час 31 минута) [-]-1[+]

[Цитировать] 

НАНДАКУРЯАА?!
info [Профиль]  [ЛС] 

NovA_JKE

Пол: Пол:Жен

Стаж: 6 лет 9 месяцев

Сообщений: 413

Антарктида
Рейтинг

post 26-Окт-2015 07:28 (спустя 6 дней) [-]0[+]

[Цитировать] 

Добавлена 3-я серия.
info [Профиль]  [ЛС] 

NovA_JKE

Пол: Пол:Жен

Стаж: 6 лет 9 месяцев

Сообщений: 413

Антарктида
Рейтинг

post 07-Ноя-2015 16:50 (спустя 12 дней) [-]0[+]

[Цитировать] 

Добавлена 4-я серия.
info [Профиль]  [ЛС] 

NovA_JKE

Пол: Пол:Жен

Стаж: 6 лет 9 месяцев

Сообщений: 413

Антарктида
Рейтинг

post 16-Ноя-2015 00:03 (спустя 8 дней) [-]0[+]

[Цитировать] 

Добавлена 5-я серия.
info [Профиль]  [ЛС] 

NovA_JKE

Пол: Пол:Жен

Стаж: 6 лет 9 месяцев

Сообщений: 413

Антарктида
Рейтинг

post 17-Ноя-2015 19:51 (спустя 1 день 19 часов) [-]0[+]

[Цитировать] 

Добaвлена 6-я серия.
info [Профиль]  [ЛС] 

NovA_JKE

Пол: Пол:Жен

Стаж: 6 лет 9 месяцев

Сообщений: 413

Антарктида
Рейтинг

post 05-Дек-2015 20:39 (спустя 18 дней) [-]0[+]

[Цитировать] 

Добaвлена 7-я серия.
info [Профиль]  [ЛС] 

NovA_JKE

Пол: Пол:Жен

Стаж: 6 лет 9 месяцев

Сообщений: 413

Антарктида
Рейтинг

post 12-Дек-2015 23:58 (спустя 7 дней) [-]0[+]

[Цитировать] 

Добaвлена 8-я серия.
info [Профиль]  [ЛС] 

NovA_JKE

Пол: Пол:Жен

Стаж: 6 лет 9 месяцев

Сообщений: 413

Антарктида
Рейтинг

post 15-Дек-2015 19:06 (спустя 2 дня 19 часов) [-]0[+]

[Цитировать] 

Добaвлена 9-я серия.
info [Профиль]  [ЛС] 

Blackbird

Пол: Пол:Муж

Стаж: 5 лет 1 месяц

Сообщений: 20

Россия
Рейтинг

post 16-Дек-2015 10:11 (спустя 15 часов) [-]0[+]

[Цитировать] 

спасибо!

_________________
info [Профиль]  [ЛС] 

NovA_JKE

Пол: Пол:Жен

Стаж: 6 лет 9 месяцев

Сообщений: 413

Антарктида
Рейтинг

post 12-Янв-2016 01:13 (спустя 26 дней) [-]0[+]

[Цитировать] 

Добaвлены 10-я и 11-я серии. Конец.
info [Профиль]  [ЛС] 

BloodEnergy

Пол: Пол:Муж

Стаж: 7 лет 3 месяца

Сообщений: 44

Гваделупа
Рейтинг

post 31-Янв-2016 14:54 (спустя 19 дней) [-]0[+]

[Цитировать] 

Ну, это конечно не шедевр.
Но и мозг не выносит ))

_________________
Бла бла бла
info [Профиль]  [ЛС] 
Показать сообщения:    
Ответить на тему

Текущее время: 09-Дек 19:34

Часовой пояс: GMT + 4



Вы не можете начинать темы
Вы не можете отвечать на сообщения
Вы не можете редактировать свои сообщения
Вы не можете удалять свои сообщения
Вы не можете голосовать в опросах
Вы не можете прикреплять файлы к сообщениям
Вы не можете скачивать файлы