Ошибка

Владыка / Overlord [1-13 из 13] + SP [01-08] [2015] [приключения, фэнтези, киберфэнтези] [HDTV720p] [MVO]

Ответить на тему
 
Автор Сообщение

Chel90RUS

Пол: Пол:Муж

Стаж: 5 лет 5 месяцев

Сообщений: 413

Россия
Рейтинг

post 05-Окт-2015 14:33 5[+]

[Цитировать] 

pic="http://static2.anidub.com/tracker/poster/b18dcc54f0.jpg"
Владыка
Overlord / オーバーロード

Год выпуска: 2015
Жанр: приключения, фэнтези, киберфэнтези
Страна: Япония
Тип: HDTV
Продолжительность: 13 серий ~ 25 мин + 8 SP ~ 3 мин
Дата выпуска: c 07.07.2015 по 29.09.2015
Режиссер: Ито Наоюки
Автор оригинала / Сценарист: Маруяма Куганэ
Озвучено: Студийная Банда AD
Перевод: Инна Астафьева
Студия:
Аудио: AAC, стерео, 163 Kbps, 48.0 KHz
АудиоSP: AAC, стерео, 162 Kbps, 48.0 KHz
Видео: AVC, 1280x720, 23.976 fps, 1 975 Kbps, 16:9
ВидеоSP: AVC, 1280x720, 23.976 fps, 951 Kbps, 16:9

General
Complete name : \[AniDub]_Overlord_[01]_[720p]_[ADStudio].mp4
Format : MPEG-4
Format profile : Base Media
Codec ID : isom
File size : 368 MiB
Duration : 24mn 0s
Overall bit rate : 2 142 Kbps
Encoded date : UTC 2015-07-12 21:28:03
Tagged date : UTC 2015-07-12 21:28:03
Writing application : Yamb 2.1.0.0
Video
ID : 2
Format : AVC
Format/Info : Advanced Video Codec
Format profile : High@L4.1
Format settings, CABAC : Yes
Format settings, ReFrames : 4 frames
Codec ID : avc1
Codec ID/Info : Advanced Video Coding
Duration : 24mn 0s
Bit rate mode : Variable
Bit rate : 1 975 Kbps
Maximum bit rate : 9 039 Kbps
Width : 1 280 pixels
Height : 720 pixels
Display aspect ratio : 16:9
Frame rate mode : Constant
Frame rate : 23.976 fps
Color space : YUV
Chroma subsampling : 4:2:0
Bit depth : 8 bits
Scan type : Progressive
Bits/(Pixel*Frame) : 0.089
Stream size : 339 MiB (92%)
Title : www.AniDub.com
Writing library : x264 core 129 r2245+729M 1a52e03
Encoding settings : cabac=1 / ref=4 / deblock=1:1:-1 / analyse=0x3:0x113 / me=umh / subme=9 / psy=1 / fade_compensate=0.00 / psy_rd=1.00:0.00 / mixed_ref=1 / me_range=24 / chroma_me=1 / trellis=2 / 8x8dct=1 / cqm=0 / deadzone=21,11 / fast_pskip=1 / chroma_qp_offset=-2 / threads=8 / lookahead_threads=1 / sliced_threads=0 / nr=0 / decimate=1 / interlaced=0 / bluray_compat=0 / constrained_intra=0 / fgo=0 / bframes=9 / b_pyramid=2 / b_adapt=2 / b_bias=0 / direct=1 / weightb=1 / open_gop=0 / weightp=2 / keyint=240 / keyint_min=24 / scenecut=40 / intra_refresh=0 / rc=crf / mbtree=0 / crf=18.5 / qcomp=0.72 / qpmin=0 / qpmax=69 / qpstep=4 / ip_ratio=1.40 / pb_ratio=1.30 / aq=1:0.85
Encoded date : UTC 2015-07-07 20:47:24
Tagged date : UTC 2015-07-12 21:28:44
Color primaries : BT.709-5, BT.1361, IEC 61966-2-4, SMPTE RP177
Transfer characteristics : BT.709-5, BT.1361
Matrix coefficients : BT.709-5, BT.1361, IEC 61966-2-4 709, SMPTE RP177

Audio
ID : 1
Format : AAC
Format/Info : Advanced Audio Codec
Format profile : LC
Codec ID : 40
Duration : 23mn 59s
Bit rate mode : Variable
Bit rate : 163 Kbps
Maximum bit rate : 239 Kbps
Channel(s) : 2 channels
Channel positions : Front: L R
Sampling rate : 48.0 KHz
Compression mode : Lossy
Stream size : 27.9 MiB (8%)
Language : Russian
Encoded date : UTC 2015-07-12 21:28:03
Tagged date : UTC 2015-07-12 21:28:44
General
Complete name : \[AniDub]_Overlord_[sp1]_[720p]_[ADStudio].mp4
Format : MPEG-4
Format profile : Base Media
Codec ID : isom
File size : 24.0 MiB
Duration : 3mn 0s
Overall bit rate : 1 116 Kbps
Encoded date : UTC 2015-08-25 19:28:52
Tagged date : UTC 2015-08-25 19:28:52
Writing application : Yamb 2.1.0.0 [http://yamb.unite-video.com]

Video
ID : 2
Format : AVC
Format/Info : Advanced Video Codec
Format profile : High@L4.1
Format settings, CABAC : Yes
Format settings, ReFrames : 4 frames
Codec ID : avc1
Codec ID/Info : Advanced Video Coding
Duration : 3mn 0s
Bit rate mode : Variable
Bit rate : 951 Kbps
Maximum bit rate : 3 782 Kbps
Width : 1 280 pixels
Height : 720 pixels
Display aspect ratio : 16:9
Frame rate mode : Constant
Frame rate : 23.976 fps
Color space : YUV
Chroma subsampling : 4:2:0
Bit depth : 8 bits
Scan type : Progressive
Bits/(Pixel*Frame) : 0.043
Stream size : 20.4 MiB (85%)
Title : 264
Writing library : x264 core 129 r2245+729M 1a52e03
Encoding settings : cabac=1 / ref=4 / deblock=1:1:-1 / analyse=0x3:0x113 / me=umh / subme=9 / psy=1 / fade_compensate=0.00 / psy_rd=1.00:0.00 / mixed_ref=1 / me_range=24 / chroma_me=1 / trellis=2 / 8x8dct=1 / cqm=0 / deadzone=21,11 / fast_pskip=1 / chroma_qp_offset=-2 / threads=8 / lookahead_threads=1 / sliced_threads=0 / nr=0 / decimate=1 / interlaced=0 / bluray_compat=0 / constrained_intra=0 / fgo=0 / bframes=9 / b_pyramid=2 / b_adapt=2 / b_bias=0 / direct=1 / weightb=1 / open_gop=0 / weightp=2 / keyint=240 / keyint_min=24 / scenecut=40 / intra_refresh=0 / rc=crf / mbtree=0 / crf=18.5 / qcomp=0.72 / qpmin=0 / qpmax=69 / qpstep=4 / ip_ratio=1.40 / pb_ratio=1.30 / aq=1:0.85
Encoded date : UTC 2015-08-04 18:36:32
Tagged date : UTC 2015-08-25 19:29:13
Color primaries : BT.709-5, BT.1361, IEC 61966-2-4, SMPTE RP177
Transfer characteristics : BT.709-5, BT.1361
Matrix coefficients : BT.709-5, BT.1361, IEC 61966-2-4 709, SMPTE RP177

Audio
ID : 1
Format : AAC
Format/Info : Advanced Audio Codec
Format profile : LC
Codec ID : 40
Duration : 2mn 59s
Bit rate mode : Variable
Bit rate : 162 Kbps
Maximum bit rate : 205 Kbps
Channel(s) : 2 channels
Channel positions : Front: L R
Sampling rate : 48.0 KHz
Compression mode : Lossy
Stream size : 3.47 MiB (15%)
Encoded date : UTC 2015-08-25 19:28:52
Tagged date : UTC 2015-08-25 19:29:13
Описание:
История начинается с последнего дня существования популярной онлайн-игры «Иггдрасиль». Главный герой, Момонга, решил остаться в любимой игре до самого последнего момента. Однако сервер не прекратил свою работу, и Момонга застревает в своем скелетоподобном персонаже и переносится в другой мир. Теперь "Могучему Владыке" придется открыть для себя новый мир и столкнуться с многочисленными испытаниями.
http://tapochek.net/viewtopic.php?t=170450 - озвучка AniDub + спешлы
info [Профиль]  [ЛС] 

post 06-Окт-2015 14:24 (спустя 23 часа) [-]0[+]

Топик был перенесен из форума Анонсы в форум HD Rips

precentor frost
 

precentor frost

Пол: Пол:Муж

Стаж: 7 лет 8 месяцев

Сообщений: 669

Рейтинг

post 06-Окт-2015 14:26 (спустя 23 часа) [-]0[+]

[Цитировать] 

добавьте отличия от http://tapochek.net/viewtopic.php?t=170450

_________________
Cилы добра, света и справедливости - это три совершенно разные фракции.
info [Профиль]  [ЛС] 

Electron

Пол: Пол:Муж

Стаж: 3 года 11 месяцев

Сообщений: 15

Россия
Рейтинг

post 06-Окт-2015 20:14 (спустя 5 часов) [-]0[+]

[Цитировать] 

Как анимешка?

_________________
Хаос, смерть, самоликвидация
info [Профиль]  [ЛС] 

Chel90RUS

Пол: Пол:Муж

Стаж: 5 лет 5 месяцев

Сообщений: 413

Россия
Рейтинг

post 06-Окт-2015 20:21 (спустя 7 минут) [-]0[+]

[Цитировать] 

Electron писал(а):

Как анимешка?
Средняя оценка 4.8 из 5

_________________
info [Профиль]  [ЛС] 
Показать сообщения:    
Ответить на тему

Текущее время: 09-Дек 11:53

Часовой пояс: GMT + 4



Вы не можете начинать темы
Вы не можете отвечать на сообщения
Вы не можете редактировать свои сообщения
Вы не можете удалять свои сообщения
Вы не можете голосовать в опросах
Вы не можете прикреплять файлы к сообщениям
Вы не можете скачивать файлы