Ошибка

Школа строгого режима / Prison School (TV-1) [1-12 + OVA из 12 + OVA] [2015] [комедия, школа, этти] [BDRip720p] [Любительский(MVO)]

Ответить на тему
 
Автор Сообщение

Chel90RUS

Пол: Пол:Муж

Стаж: 5 лет 5 месяцев

Сообщений: 413

Россия
Рейтинг

post 28-Сен-2015 23:18 2[+]

[Цитировать] 

pic="http://static2.anidub.com/tracker/poster/48d9730a25.jpg"
Школа строгого режима
Prison School / プリズンスクール

Год выпуска: 2015
Жанр: комедия, школа, этти
Страна: Япония
Тип: BDRip
Продолжительность: 12 серий + OVA ~ 25 мин
Дата выпуска: TV c 11.07.2015 по 26.09.2015, OVA 4.03.2016
Режиссер: Мидзусима Цутому
Автор оригинала / Сценарист: Хирамото Акира
Озвучено: Trina_D, Гамлетка Цезаревна, Nika Lenina, 9й неизвестный, Cuba77
Перевод: Shift
Студия:
Аудио: AAC 48000Hz stereo 192kbps [A: English [eng] (aac lc, 48000 Hz, stereo, 192 kb/s)]
Видео: MPEG4 Video (H264) 1280x720 23.976fps 2261kbps [V: h264 main L4.1, yuv420p, 1280x720, 2261 kb/s]

General
Complete name : \[AniDub]_Prison_School_[01]_[BDRip_720p].mp4
Format : MPEG-4
Format profile : Base Media
Codec ID : isom
File size : 434 MiB
Duration : 24mn 40s
Overall bit rate mode : Variable
Overall bit rate : 2 458 Kbps
Encoded date : UTC 2016-03-20 15:01:13
Tagged date : UTC 2016-03-20 15:01:13
Writing application : Yamb 2.1.0.0

Video
ID : 1
Format : AVC
Format/Info : Advanced Video Codec
Format profile : Main@L4.1
Format settings, CABAC : Yes
Format settings, ReFrames : 4 frames
Codec ID : avc1
Codec ID/Info : Advanced Video Coding
Duration : 24mn 40s
Bit rate : 2 262 Kbps
Maximum bit rate : 24.7 Mbps
Width : 1 280 pixels
Height : 720 pixels
Display aspect ratio : 16:9
Frame rate mode : Constant
Frame rate : 23.976 fps
Color space : YUV
Chroma subsampling : 4:2:0
Bit depth : 8 bits
Scan type : Progressive
Bits/(Pixel*Frame) : 0.102
Stream size : 399 MiB (92%)
Writing library : x264 core 148 r2638 7599210
Encoding settings : cabac=1 / ref=3 / deblock=1:0:0 / analyse=0x1:0x131 / me=umh / subme=9 / psy=1 / psy_rd=1.00:0.00 / mixed_ref=1 / me_range=32 / chroma_me=1 / trellis=1 / 8x8dct=0 / cqm=0 / deadzone=21,11 / fast_pskip=1 / chroma_qp_offset=-2 / threads=12 / lookahead_threads=1 / sliced_threads=0 / nr=0 / decimate=1 / interlaced=0 / bluray_compat=0 / constrained_intra=0 / bframes=3 / b_pyramid=2 / b_adapt=1 / b_bias=0 / direct=1 / weightb=1 / open_gop=0 / weightp=2 / keyint=240 / keyint_min=1 / scenecut=40 / intra_refresh=0 / rc_lookahead=40 / rc=crf / mbtree=1 / crf=17.0 / qcomp=0.60 / qpmin=0 / qpmax=69 / qpstep=4 / ip_ratio=1.40 / aq=1:1.00
Encoded date : UTC 2015-11-04 09:41:26
Tagged date : UTC 2016-03-20 15:01:44

Audio
ID : 2
Format : AAC
Format/Info : Advanced Audio Codec
Format profile : LC
Codec ID : 40
Duration : 24mn 39s
Bit rate mode : Variable
Bit rate : 192 Kbps
Maximum bit rate : 197 Kbps
Channel(s) : 2 channels
Channel positions : Front: L R
Sampling rate : 48.0 KHz
Compression mode : Lossy
Stream size : 33.9 MiB (8%)
Language : English
Encoded date : UTC 2016-03-20 15:01:34
Tagged date : UTC 2016-03-20 15:01:44
Описание:
Школа Хачимицу, бывшая школа для девочек, после реструктуризации становится школой общего типа - для мальчиков и девочек. Сюда переводятся несколько отважный онанистов, готовых к новым подвигам и свершениям. Но на их пути становится страшный и беспощадный учсовет...
Изменено качество на BDRip, Добавлена OVA
Аниме в 1080p тут
info [Профиль]  [ЛС] 

darktren

Пол: Пол:Муж

Стаж: 6 лет 9 месяцев

Сообщений: 60

Россия
Рейтинг

post 01-Окт-2015 13:09 (спустя 2 дня 13 часов) [-]0[+]

[Цитировать] 

жеское аниме)
info [Профиль]  [ЛС] 

GjS

Пол: Пол:Муж

Стаж: 7 лет 8 месяцев

Сообщений: 17

Россия
Рейтинг

post 01-Окт-2015 13:28 (спустя 19 минут) [-]0[+]

[Цитировать] 

darktren писал(а):

жеское аниме)
в чем именно?)
info [Профиль]  [ЛС] 

RomeoZero

Пол: Пол:Муж

Стаж: 7 лет 1 месяц

Сообщений: 202

Россия
Рейтинг

post 01-Окт-2015 13:37 (спустя 8 минут) [-]-2[+]

[Цитировать] 

скорей бы лайв экшн блин.

_________________
info [Профиль]  [ЛС] 

post 05-Окт-2015 11:17 (спустя 3 дня) [-]0[+]

Топик был перенесен из форума HD Rips в форум Анонсы

precentor frost
 

post 05-Окт-2015 13:02 (спустя 3 дня) [-]0[+]

Топик был перенесен из форума Анонсы в форум HD Rips

precentor frost
 

SSStylish

Пол: Пол:Муж

Стаж: 2 года 8 месяцев

Сообщений: 10

Россия
Рейтинг

post 05-Окт-2015 15:07 (спустя 4 дня) [-]1[+]

[Цитировать] 

Без цензуры хоть? А то "засветка" на трусах девушек порядком бесит.

_________________
info [Профиль]  [ЛС] 

naispy2

Стаж: 6 лет 9 месяцев

Сообщений: 269

Рейтинг

post 05-Окт-2015 15:26 (спустя 19 минут) [-]0[+]

[Цитировать] 

После манги никак не пошло, да и зацензурили много.
info [Профиль]  [ЛС] 

Chel90RUS

Пол: Пол:Муж

Стаж: 5 лет 5 месяцев

Сообщений: 413

Россия
Рейтинг

post 05-Окт-2015 15:59 (спустя 33 минуты) [-]1[+]

[Цитировать] 

SSStylish писал(а):

Без цензуры хоть? А то "засветка" на трусах девушек порядком бесит.
С цензурой ТВшка жи

_________________
info [Профиль]  [ЛС] 

SSStylish

Пол: Пол:Муж

Стаж: 2 года 8 месяцев

Сообщений: 10

Россия
Рейтинг

post 05-Окт-2015 17:24 (спустя 1 час 24 минуты) [-]0[+]

[Цитировать] 

Chel90RUS писал(а):

SSStylish писал(а):

Без цензуры хоть? А то "засветка" на трусах девушек порядком бесит.
С цензурой ТВшка жи
Ой, точно, не обратил внимания. Спасибо.

_________________
info [Профиль]  [ЛС] 

Chel90RUS

Пол: Пол:Муж

Стаж: 5 лет 5 месяцев

Сообщений: 413

Россия
Рейтинг

post 22-Мар-2016 01:01 (спустя 5 месяцев 16 дней) [-]0[+]

[Цитировать] 

Изменено качество на BDRip, Добавлена OVA

_________________
info [Профиль]  [ЛС] 

Pharaon

Пол: Пол:Муж

Стаж: 7 лет 6 месяцев

Сообщений: 5837

Рейтинг

post 22-Мар-2016 19:11 (спустя 18 часов) [-]0[+]

[Цитировать] 

Chel90RUS писал(а):

Добавлена OVA
Для OVA нужно создать отдельную раздачу.

Цитата:

13.4 Запрещено создавать антологии аниме сериалов, фильмов и манги. Создание антологии не допустимы ни в каком виде.
info [Профиль]  [ЛС] 

Chel90RUS

Пол: Пол:Муж

Стаж: 5 лет 5 месяцев

Сообщений: 413

Россия
Рейтинг

post 22-Мар-2016 19:16 (спустя 4 минуты) [-]0[+]

[Цитировать] 

Pharaon писал(а):

Chel90RUS писал(а):

Добавлена OVA
Для OVA нужно создать отдельную раздачу.

Цитата:

13.4 Запрещено создавать антологии аниме сериалов, фильмов и манги. Создание антологии не допустимы ни в каком виде.
Ова относится к первому сезону, её даже можно назвать 13 серией

_________________
info [Профиль]  [ЛС] 

Pharaon

Пол: Пол:Муж

Стаж: 7 лет 6 месяцев

Сообщений: 5837

Рейтинг

post 22-Мар-2016 19:49 (спустя 32 минуты) [-]0[+]

[Цитировать] 

Chel90RUS писал(а):

Ова относится к первому сезону, её даже можно назвать 13 серией
ОК тогда поставлю проверено.
info [Профиль]  [ЛС] 

Nerzyllys

Пол: Пол:Муж

Стаж: 3 года 8 месяцев

Сообщений: 36

Предупреждений: 1

Россия
Рейтинг

post 22-Мар-2016 21:46 (спустя 1 час 57 минут) [-]0[+]

[Цитировать] 

OVA озвучена анидабом?
info [Профиль]  [ЛС] 

Chel90RUS

Пол: Пол:Муж

Стаж: 5 лет 5 месяцев

Сообщений: 413

Россия
Рейтинг

post 22-Мар-2016 22:32 (спустя 46 минут) [-]0[+]

[Цитировать] 

Nerzyllys писал(а):

OVA озвучена анидабом?
Да

_________________
info [Профиль]  [ЛС] 

xwest

Пол: Пол:Муж

Стаж: 7 лет 3 месяца

Сообщений: 40

Япония
Рейтинг

post 23-Мар-2016 00:34 (спустя 2 часа 2 минуты) [-]0[+]

[Цитировать] 

Суууууууууупер анимешка спс, поржал от души!!!
info [Профиль]  [ЛС] 
Показать сообщения:    
Ответить на тему

Текущее время: 03-Дек 21:46

Часовой пояс: GMT + 4



Вы не можете начинать темы
Вы не можете отвечать на сообщения
Вы не можете редактировать свои сообщения
Вы не можете удалять свои сообщения
Вы не можете голосовать в опросах
Вы не можете прикреплять файлы к сообщениям
Вы не можете скачивать файлы