Ошибка

Удар Крови / Strike the blood 24 из 24

Ответить на тему
 
Автор Сообщение

Fuger

Пол: Пол:Муж

Стаж: 2 года 6 месяцев

Сообщений: 21

Россия
Рейтинг

post 26-Сен-2015 22:09 0[+]

[Цитировать] 

Год: 2013
Жанр: приключения, фэнтези, комедия, этти, сверхестественное
Страна: Япония
Количество серий: 24
Дата выпуска: c 04.10.2013 по 28.03.2014
Режиссер: Ямамото Хидэё
Автор оригинала / Сценарист: Микумо Гакуто
Озвучивание: Многоголосовое ( JAM, Ancord, Nika Lenina "Anidub")
Перевод: Daytene (Anidub)
Студия:

Описание: Действие происходит в альтернативной реальности, где давно признано существование демонов; в тихом океане есть даже остров — «Итогамидзима», где демоны являются полноценными гражданами и обладают равными с людьми правами. Однако существуют и люди-маги, которые ведут охоту на них, в частности, на вампиров. Обыкновенный японский школьник по имени Акацуки Кодзё по непонятной причине превратился в «чистокровного вампира», четвёртого по числу. За ним начинает следовать молодая девушка Химэраки Юкина, или «шаман клинка», которая должна следить за Акацуки и убить его в случае, если он выйдет из под контроля.

Качество: BDRip 720p pic
Формат: MPEG-4
Видео кодек: AVC
Аудио кодек: AAC
Видео: 1280x720 (16:9), 23.976 fps
Аудио #1: Rus AAC, 640 Kbps, 48,0 КГц


01 - Правая рука святого - часть первая.
02 - Правая рука святого - часть вторая.
03 - Правая рука святого - часть третья
04 - Правая рука святого - часть четвертая
05 - Посланник короля войны - часть первая
06 - Посланник короля войны - часть вторая
07 - Посланник короля войны - часть третья
08 - Посланник короля войны - часть четвертая
09 - Ангел в огне - часть первая
10 - Ангел в огне - часть вторая
11 - Ангел в огне - часть третья
12 - Ангел в огне - часть четвертая
13 - Лабиринт синей Ведьмы - часть первая
14 - Лабиринт синей ведьмы - часть вторая
15 - Лабиринт синей ведьмы - часть третья
16 - Пир наблюдателей - часть первая
17 - Пир наблюдателей - часть вторая
18 - Пир наблюдателей - часть третья
19 - Пир наблюдателей - часть четвертая
20 - Возвращение алхимика - часть первая
21 - Возвращение алхимика - часть вторая
22 - Возвращение алхимика - часть третья
23 - Королевство Акацки - часть первая
24 - Королевство Акацки - часть вторая
Видео
Идентификатор : 1
Формат : AVC
Формат/Информация : Advanced Video Codec
Профиль формата : Baseline@L3.1
Параметр CABAC формата : Нет
Параметр ReFrames формата : 3 кадра
Идентификатор кодека : avc1
Идентификатор кодека/Информация : Advanced Video Coding
Продолжительность : 23 м.
Вид битрейта : Переменный
Битрейт : 1796 Кбит/сек
Максимальный битрейт : 10,3 Мбит/сек
Ширина : 1280 пикселей
Высота : 720 пикселей
Соотношение сторон : 16:9
Режим частоты кадров : Постоянный
Частота кадров : 23,976 кадра/сек
Стандарт вещания : NTSC
Цветовое пространство : YUV
Субдискретизация насыщенности : 4:2:0
Битовая глубина : 8 бит
Тип развёртки : Прогрессивная
Бит/(Пиксели*Кадры) : 0.081
Размер потока : 306 Мбайт (90%)
Язык : English
Дата кодирования : UTC 2013-10-06 11:46:54
Дата пометки : UTC 2013-10-06 21:36:52
Цветовой диапазон : Limited

Аудио
Идентификатор : 2
Формат : AAC
Формат/Информация : Advanced Audio Codec
Профиль формата : LC
Идентификатор кодека : 40
Продолжительность : 23 м.
Вид битрейта : Переменный
Битрейт : 192 Кбит/сек
Максимальный битрейт : 196 Кбит/сек
Каналы : 2 канала
Расположение каналов : Front: L R
Частота : 48,0 КГц
Метод сжатия : С потерями
Размер потока : 32,7 Мбайт (10%)
Язык : Russian
Дата кодирования : UTC 2013-10-06 21:36:51
Дата пометки : UTC 2013-10-06 21:36:52
info [Профиль]  [ЛС] 

Pharaon

Пол: Пол:Муж

Стаж: 7 лет 6 месяцев

Сообщений: 5837

Рейтинг

post 29-Сен-2015 23:28 (спустя 3 дня) [-]0[+]

[Цитировать] 

Правила оформления раздач в разделе "Аниме (Основной)".

Цитата:

7.7 В обязательном порядке в названии темы, должны присутствовать теги и сокращения имеющихся данных о раздаче. Данные заполняются по ниже указанному стандарту и любое изменение или добавление лишней информации будет является нарушением действующих правил, и вам как релизеру будет выписано предупреждение.
(Русское название / Английское (сезон)[количество серий или тип][год][жанр][качество][тип перевода])

Цитата:

Все скриншоты должны быть в формате .PNG и представлены в виде превью, и сняты с источника раздаваемого.
info [Профиль]  [ЛС] 
Показать сообщения:    
Ответить на тему

Текущее время: 03-Дек 06:32

Часовой пояс: GMT + 4



Вы не можете начинать темы
Вы не можете отвечать на сообщения
Вы не можете редактировать свои сообщения
Вы не можете удалять свои сообщения
Вы не можете голосовать в опросах
Вы не можете прикреплять файлы к сообщениям
Вы не можете скачивать файлы