Ошибка

Видеоигры: Фильм / Video Games: The Movie (Джереми Снеад)[2014,Документальный,WEB-DL 720p]

Ответить на тему
 
Автор Сообщение

Sweetie Dragon

Пол: Пол:Муж

Стаж: 4 года 1 месяц

Сообщений: 67

Россия
Рейтинг

post 26-Сен-2015 19:05 2[+]

[Цитировать] 

Видеоигры: Фильм / Video Games: The Movie



Год выпуска: 2014
Страна: США
Жанр: Документальный
Продолжительность: 1:41:08
Перевод: Профессиональный (многоголосый, закадровый) StopGame
Режиссер:
  • Джереми Снеад
В ролях:
  • Шон Эстин
  • Эл Алком
  • Питер Армстронг
  • Клифф Блежински
  • Зак Брафф
  • Джим Браун
  • Нолан Бушнелл
  • Луис Кастл
  • Уил Уитон
  • Хлоя Дикстра

Описание: История возникновения развлекательной индустрии, окончательно покорившей человечество. Первые шаги в создании видеоигр, формирование геймерской культуры, современные нюансы производства, мнения и ностальгические речи корифеев виртуальных развлечений, а также взгляд в будущее.

Сэмпл: Скачать
Качество: WEB-DL 720p
Формат: MKV
Видео кодек: H.264
Аудио кодек: AC3
Видео: 1280x720, 23.976 fps, 4001 kbps
Аудио: stereo, 192 kbps, 48 kHz
Аудио 2: DD 5.1, 384 kbps, 48 kHz
Субтитры: Русские (форсированные), Английские (полные)
General
Unique ID : 188162257666078991845556315378493224436 (0x8D8EBB8E9303D9149CE280F4D6A0F5F4)
Complete name : D:\Downloads\[Video]\[Films]\video.games.the.movie.web-dl.720p.mkv
Format : Matroska
Format version : Version 4 / Version 2
File size : 3.30 GiB
Duration : 1h 41mn
Overall bit rate : 4 670 Kbps
Encoded date : UTC 2015-04-10 16:05:21
Writing application : mkvmerge v6.1.0 ('Old Devil') built on Mar 2 2013 14:32:37
Writing library : libebml v1.3.0 + libmatroska v1.4.0

Video
ID : 1
Format : AVC
Format/Info : Advanced Video Codec
Format profile : High@L3.1
Format settings, CABAC : No
Format settings, ReFrames : 2 frames
Codec ID : V_MPEG4/ISO/AVC
Duration : 1h 41mn
Bit rate : 4 001 Kbps
Width : 1 280 pixels
Height : 720 pixels
Display aspect ratio : 16:9
Frame rate mode : Constant
Frame rate : 23.976 fps
Color space : YUV
Chroma subsampling : 4:2:0
Bit depth : 8 bits
Scan type : Progressive
Bits/(Pixel*Frame) : 0.181
Stream size : 2.83 GiB (86%)
Language : English
Default : Yes
Forced : No
Color range : Limited
Color primaries : BT.709
Transfer characteristics : BT.709
Matrix coefficients : BT.709

Audio #1
ID : 2
Format : AC-3
Format/Info : Audio Coding 3
Mode extension : CM (complete main)
Format settings, Endianness : Big
Codec ID : A_AC3
Duration : 1h 41mn
Bit rate mode : Constant
Bit rate : 192 Kbps
Channel(s) : 2 channels
Channel positions : Front: L R
Sampling rate : 48.0 KHz
Compression mode : Lossy
Stream size : 139 MiB (4%)
Title : StopGame
Language : Russian
Default : Yes
Forced : No

Audio #2
ID : 3
Format : AC-3
Format/Info : Audio Coding 3
Mode extension : CM (complete main)
Format settings, Endianness : Big
Codec ID : A_AC3
Duration : 1h 41mn
Bit rate mode : Constant
Bit rate : 384 Kbps
Channel(s) : 6 channels
Channel positions : Front: L C R, Side: L R, LFE
Sampling rate : 48.0 KHz
Compression mode : Lossy
Stream size : 278 MiB (8%)
Title : Оригинальная дорожка
Language : English
Default : No
Forced : No

Text #1
ID : 4
Format : UTF-8
Codec ID : S_TEXT/UTF8
Codec ID/Info : UTF-8 Plain Text
Title : forced
Language : Russian
Default : Yes
Forced : No

Text #2
ID : 5
Format : UTF-8
Codec ID : S_TEXT/UTF8
Codec ID/Info : UTF-8 Plain Text
Language : English
Default : No
Forced : No

Menu
00:00:00.000 : en:Chapter 01
00:16:27.000 : en:Chapter 02
00:30:56.000 : en:Chapter 03
00:44:38.000 : en:Chapter 04
01:02:16.000 : en:Chapter 05
01:13:22.000 : en:Chapter 06
01:27:05.000 : en:Chapter 07
01:34:58.000 : en:End Credits
info [Профиль]  [ЛС] 

post 26-Сен-2015 20:46 (спустя 1 час 40 минут) [-]0[+]

Топик был перенесен из форума Анонсы в форум Документальные фильмы и телепередачи

L
 

Tohabandit90

Пол: Пол:Муж

Стаж: 4 года 5 месяцев

Сообщений: 211

Россия
Рейтинг

post 26-Сен-2015 21:04 (спустя 1 час 58 минут) [-]0[+]

[Цитировать] 

Спасибо!

_________________
Не зная ни сна и ни отдыха, при лунном и солнечном свете, мы делаем деньги из воздуха, что б снова пустить их на ветер...
info [Профиль]  [ЛС] 

Gokudo

Пол: Пол:Муж

Стаж: 6 лет 7 месяцев

Сообщений: 88

Рейтинг

post 27-Сен-2015 06:41 (спустя 9 часов) [-]8[+]

[Цитировать] 

Так себе фильм. Выгляди как оочень длинная реклама. Пропустили кучу материала - ни про атари, ни про аркадные автоматы, ни про дримкаст ничего не было (и многого другого). Про ПК вообще чуть-чуть сказали - упомянули дум и WOW. Хотя, та же wow всему обязана прорадительнице мморпг - ультиме.
Лучше на ютубе ролики посмотреть, там и то больше инфы узнать можно
info [Профиль]  [ЛС] 

BoySKAyt

Пол: Пол:Муж

Стаж: 7 лет 7 месяцев

Сообщений: 247

Россия
Рейтинг

post 27-Сен-2015 10:34 (спустя 3 часа) [-]0[+]

[Цитировать] 

Благодаря индустрии работаю в индустрии! =)

_________________
i5-3570K CPU @ 3.40GHz (4 CPUs), ~3.4GHz
8192MB RAM
NVIDIA GeForce GTX 660 , 2082MB, Driver Version 350.12
Graphics Card
info [Профиль]  [ЛС] 
Показать сообщения:    
Ответить на тему

Текущее время: 06-Дек 20:03

Часовой пояс: GMT + 4



Вы не можете начинать темы
Вы не можете отвечать на сообщения
Вы не можете редактировать свои сообщения
Вы не можете удалять свои сообщения
Вы не можете голосовать в опросах
Вы не можете прикреплять файлы к сообщениям
Вы не можете скачивать файлы