Ошибка

Приключение в пространстве и времени / An Adventure in Space and Time (Терри Макдонаф)[2013,Документальная драма,BDRip 1080p]

Ответить на тему
 
Автор Сообщение

Sweetie Dragon

Пол: Пол:Муж

Стаж: 4 года 1 месяц

Сообщений: 67

Россия
Рейтинг

post 26-Сен-2015 15:04 0[+]

[Цитировать] 

Приключение в пространстве и времени / An Adventure in Space and Time



Год выпуска: 2013
Страна: Великобритания
Жанр: Документальная драма
Продолжительность: 01:26:44
Перевод: Любительский (многоголосый закадровый)
Режиссер:
  • Терри Макдонаф
В ролях:
  • Дэвид Брэдли
  • Джессика Рэйн
  • Саша Даван
  • Брайан Кокс
  • Лэсли Менвиль
  • Росс Герни-Рэндалл
  • Роджер Мэй
  • Сэм Хоар
  • Чарли Кемп
  • Уильям Расселл

Описание: «Приключение в пространстве и времени» — британская телевизионная документальная драма, которая выпущена в честь 50-летия научно-фантастического телесериала «Доктор Кто», написанная Марком Гэтиссом, сценаристом сериалов «Доктор Кто» и «Шерлок». Фильм был показан на телеканале «BBC Two» в 2013 году. В нем рассказывается ранняя история создания сериала «Доктор Кто». В фильме вы увидите множество камео актеров, создателей классического и возрожденного сериала "Доктор Кто".

Семпл: Скачать
Качество: BDRip
Формат: MKV
Видео кодек: AVC
Аудио кодек: RUS, DTS
Аудио кодек 2: ENG, DTS
Видео: 1920x1080, 12,9 Mbps, 23,976 fps
Аудио: 5.1 Ch, 48.0 KHz, 24 bit, 1 510 Kbps
Аудио 2: 5.1 Ch, 48.0 KHz, 24 bit, 1 509 Kbps
Субтитры: встроенные
General
Unique ID : 187031216957570884854167696524213498067 (0x8CB4E6F1D1DDB39CAD94F30295E830D3)
Complete name : D:\Downloads\[Video]\[Films]\Приключение в пространстве и времени(1080p)\Приключение в пространстве и времени(1080p).mkv
Format : Matroska
Format version : Version 4 / Version 2
File size : 9.66 GiB
Duration : 1h 26mn
Overall bit rate : 15.9 Mbps
Encoded date : UTC 2015-02-04 11:08:07
Writing application : mkvmerge v7.4.0 ('Circles') 64bit built on Dec 12 2014 12:19:56
Writing library : libebml v1.3.0 + libmatroska v1.4.1
DURATION : 01:25:34.838000000
NUMBER_OF_FRAMES : 1296
NUMBER_OF_BYTES : 46099
_STATISTICS_WRITING_APP : mkvmerge v7.4.0 ('Circles') 64bit built on Dec 12 2014 12:19:56
_STATISTICS_WRITING_DATE_UTC : 2015-01-05 18:00:46
_STATISTICS_TAGS : BPS DURATION NUMBER_OF_FRAMES NUMBER_OF_BYTES

Video
ID : 1
Format : AVC
Format/Info : Advanced Video Codec
Format profile : High@L4.1
Format settings, CABAC : Yes
Format settings, ReFrames : 4 frames
Codec ID : V_MPEG4/ISO/AVC
Duration : 1h 26mn
Bit rate : 12.9 Mbps
Width : 1 920 pixels
Height : 1 080 pixels
Display aspect ratio : 16:9
Frame rate mode : Constant
Frame rate : 23.976 fps
Color space : YUV
Chroma subsampling : 4:2:0
Bit depth : 8 bits
Scan type : Progressive
Bits/(Pixel*Frame) : 0.260
Stream size : 7.64 GiB (79%)
Title : English
Writing library : x264 core 142 r2431 ac76440
Encoding settings : cabac=1 / ref=4 / deblock=1:0:0 / analyse=0x3:0x113 / me=umh / subme=9 / psy=1 / psy_rd=1.00:0.00 / mixed_ref=1 / me_range=32 / chroma_me=1 / trellis=1 / 8x8dct=1 / cqm=0 / deadzone=21,11 / fast_pskip=0 / chroma_qp_offset=-4 / threads=6 / lookahead_threads=1 / sliced_threads=0 / nr=0 / decimate=1 / interlaced=0 / bluray_compat=0 / constrained_intra=0 / bframes=6 / b_pyramid=2 / b_adapt=1 / b_bias=0 / direct=1 / weightb=1 / open_gop=0 / weightp=2 / keyint=240 / keyint_min=22 / scenecut=40 / intra_refresh=0 / rc_lookahead=40 / rc=2pass / mbtree=1 / bitrate=12925 / ratetol=0.1 / qcomp=0.60 / qpmin=0 / qpmax=69 / qpstep=4 / cplxblur=20.0 / qblur=0.5 / ip_ratio=1.40 / aq=1:1.00
Language : English
Default : Yes
Forced : No

Audio #1
ID : 2
Format : DTS
Format/Info : Digital Theater Systems
Mode : 16
Format settings, Endianness : Big
Codec ID : A_DTS
Duration : 1h 26mn
Bit rate mode : Constant
Bit rate : 1 510 Kbps
Channel(s) : 6 channels
Channel positions : Front: L C R, Side: L R, LFE
Sampling rate : 48.0 KHz
Bit depth : 24 bits
Compression mode : Lossy
Stream size : 937 MiB (9%)
Title : Russian
Language : Russian
Default : Yes
Forced : Yes

Audio #2
ID : 3
Format : DTS
Format/Info : Digital Theater Systems
Mode : 16
Format settings, Endianness : Big
Codec ID : A_DTS
Duration : 1h 26mn
Bit rate mode : Constant
Bit rate : 1 509 Kbps
Channel(s) : 6 channels
Channel positions : Front: L C R, Side: L R, LFE
Sampling rate : 48.0 KHz
Bit depth : 24 bits
Compression mode : Lossy
Stream size : 936 MiB (9%)
Title : English
Language : English
Default : No
Forced : No

Text #1
ID : 4
Format : ASS
Codec ID : S_TEXT/ASS
Codec ID/Info : Advanced Sub Station Alpha
Compression mode : Lossless
Title : RUS(Forced)
Language : Russian
Default : Yes
Forced : Yes

Text #2
ID : 5
Format : UTF-8
Codec ID : S_TEXT/UTF8
Codec ID/Info : UTF-8 Plain Text
Title : English
Language : English
Default : No
Forced : No
info [Профиль]  [ЛС] 

L

Пол: Пол:Муж

Стаж: 6 лет 7 месяцев

Сообщений: 10781

Украина
Рейтинг

post 26-Сен-2015 15:19 (спустя 15 минут) [-]0[+]

[Цитировать] 

Добавьте Медиаинфо и сэмпл

_________________
info [Профиль]  [ЛС] 

post 26-Сен-2015 15:19 (спустя 13 секунд) [-]0[+]

Топик был перенесен из форума Анонсы в форум Документальные фильмы и телепередачи

L
 

Redwy

Стаж: 4 года 3 месяца

Сообщений: 11

Рейтинг

post 26-Сен-2015 21:38 (спустя 6 часов) [-]1[+]

[Цитировать] 

Прекрасный фильм.
info [Профиль]  [ЛС] 

Skromnjaga

Пол: Пол:Муж

Стаж: 6 лет 8 месяцев

Сообщений: 198

Украина
Рейтинг

post 27-Сен-2015 15:29 (спустя 17 часов) [-]1[+]

[Цитировать] 

Спасибо за чудесный фильм.

_________________
МАГМА ТЕЧЁТ В НАШИХ ВЕНАХ, РАСКАЛЯЯ СЕРДЦА!
info [Профиль]  [ЛС] 
Показать сообщения:    
Ответить на тему

Текущее время: 05-Дек 04:31

Часовой пояс: GMT + 4



Вы не можете начинать темы
Вы не можете отвечать на сообщения
Вы не можете редактировать свои сообщения
Вы не можете удалять свои сообщения
Вы не можете голосовать в опросах
Вы не можете прикреплять файлы к сообщениям
Вы не можете скачивать файлы