Ошибка

Мой путь / Mai wei (Канг Чже Гю) [2011 г., боевик, драма, военный, история, BDRip 1080p]

Ответить на тему
 
Автор Сообщение

Inkvizitron

Пол: Пол:Муж

Стаж: 1 год 3 месяца

Сообщений: 11

Россия
Рейтинг

post 21-Сен-2015 16:38 5[+]

[Цитировать] 

Мой путь / Mai wei

Год выпуска: 2011
Страна: Южная Корея
Жанр: боевик, драма, военный, история
Продолжительность: 143 мин. / 02:23
Перевод: Авторский закадровый Ю.Сербин
Язык субтитров: Русские, английские

Режиссер:
    Канг Чже Гю


В ролях:
    Чан Дон Гун (Dong-gun Jang), Дзё Одагири (Joe Odagiri), Татсуо Хасегава (Tatsuo Hasegawa), Бинбин Фань (Bingbing Fan), Ким Ин Квон (In-kwon Kim), Ким Хи Вон (Hee-won Kim), Тай-Кинг О (Tae-kyung Oh), Квак Чжон Ук (Kwak Jung Wook), Ким Ши Ху (Shi-hoo Kim), Чхон Хо Чжин (Ho-jin Chun).


Описание: В 1944 году Ким Чун Сик мечтал стать следующим Сон Ки Чжоном (корейский марафонец, который выиграл олимпийское золото в период японского колониального господства), чтобы соперничать с лучшим японским чемпионом Хасега Тацуо. Кан Чун Сик не хотел идти на войну, а Тацуо был горд служить своей стране. Оба были вынуждены вступить в армию.



Качество: BDRip 1080p
Формат: MKV
Видео кодек: AVC
Аудио кодек: AC3
Видео:1920x816 (2.35:1), 5599 kbps, 23,976 fps, 0,149 bpp
Аудио: русский, 5.1, 48 kHz, 384 kbps, 16 bit |AVO. Ю.Сербин|
Общее
Уникальный идентификатор : 197768990593954916936335426811534873090 (0x94C8EC0F1D0D98C2BFF8C597E9CD9202)
Полное имя : G:\Фильмы\Корейское кино\Mai wei, 2011.BDRip.1080p..mkv
Формат : Matroska
Версия формата : Version 2
Размер файла : 5,98 Гбайт
Продолжительность : 2 ч. 23 м.
Общий поток : 5980 Кбит/сек
Дата кодирования : UTC 2012-09-24 04:19:57
Программа кодирования : mkvmerge v5.8.0 ('No Sleep / Pillow') built on Sep 2 2012 15:37:04
Библиотека кодирования : libebml v1.2.3 + libmatroska v1.3.0

Видео
Идентификатор : 1
Формат : AVC
Формат/Информация : Advanced Video Codec
Профиль формата : High@L4.1
Параметр CABAC формата : Да
Параметр ReFrames формата : 5 кадров
Идентификатор кодека : V_MPEG4/ISO/AVC
Продолжительность : 2 ч. 23 м.
Битрейт : 5599 Кбит/сек
Ширина : 1920 пикселей
Высота : 816 пикселей
Соотношение сторон : 2,35:1
Режим частоты кадров : Постоянный
Частота кадров : 23,976 кадра/сек
Цветовое пространство : YUV
Субдискретизация насыщенности : 4:2:0
Битовая глубина : 8 бит
Тип развёртки : Прогрессивная
Бит/(Пиксели*Кадры) : 0.149
Размер потока : 5,48 Гбайт (92%)
Библиотека кодирования : x264 core 125 r2208 d9d2288
Настройки программы : cabac=1 / ref=5 / deblock=1:-1:-1 / analyse=0x3:0x113 / me=umh / subme=10 / psy=1 / psy_rd=0.80:0.20 / mixed_ref=1 / me_range=32 / chroma_me=1 / trellis=2 / 8x8dct=1 / cqm=0 / deadzone=21,11 / fast_pskip=0 / chroma_qp_offset=1 / threads=6 / lookahead_threads=1 / sliced_threads=0 / nr=0 / decimate=1 / interlaced=0 / bluray_compat=0 / constrained_intra=0 / bframes=8 / b_pyramid=2 / b_adapt=2 / b_bias=0 / direct=3 / weightb=1 / open_gop=0 / weightp=2 / keyint=240 / keyint_min=23 / scenecut=40 / intra_refresh=0 / rc=2pass / mbtree=0 / bitrate=5599 / ratetol=1.0 / qcomp=0.70 / qpmin=10 / qpmax=51 / qpstep=4 / cplxblur=20.0 / qblur=0.5 / ip_ratio=1.40 / pb_ratio=1.30 / aq=2:0.70
Язык : English
Default : Да
Forced : Нет

Аудио
Идентификатор : 2
Формат : AC-3
Формат/Информация : Audio Coding 3
Расширение режима : CM (complete main)
Параметр Endianness формата : Big
Идентификатор кодека : A_AC3
Продолжительность : 2 ч. 23 м.
Вид битрейта : Постоянный
Битрейт : 384 Кбит/сек
Каналы : 6 каналов
Расположение каналов : Front: L C R, Side: L R, LFE
Частота : 48,0 КГц
Метод сжатия : С потерями
Размер потока : 393 Мбайт (6%)
Язык : Russian
Default : Да
Forced : Нет

Текст #1
Идентификатор : 3
Формат : UTF-8
Идентификатор кодека : S_TEXT/UTF8
Идентификатор кодека/Информация : UTF-8 Plain Text
Язык : Russian
Default : Нет
Forced : Нет

Текст #2
Идентификатор : 4
Формат : UTF-8
Идентификатор кодека : S_TEXT/UTF8
Идентификатор кодека/Информация : UTF-8 Plain Text
Язык : English
Default : Нет
Forced : Нет

Меню
00:00:00.000 : en:Chapter 01
00:09:22.979 : en:Chapter 02
00:16:58.100 : en:Chapter 03
00:21:59.442 : en:Chapter 04
00:28:51.270 : en:Chapter 05
00:34:28.106 : en:Chapter 06
00:41:31.405 : en:Chapter 07
00:48:52.094 : en:Chapter 08
00:54:51.079 : en:Chapter 09
01:03:27.594 : en:Chapter 10
01:10:20.048 : en:Chapter 11
01:17:54.627 : en:Chapter 12
01:24:17.761 : en:Chapter 13
01:32:55.653 : en:Chapter 14
01:41:56.568 : en:Chapter 15
01:49:57.465 : en:Chapter 16
01:58:07.204 : en:Chapter 17
02:06:19.947 : en:Chapter 18
02:18:11.906 : en:Chapter 19
info [Профиль]  [ЛС] 

post 22-Сен-2015 11:35 (спустя 18 часов) [-]0[+]

Топик был перенесен из форума Азиатское кино | Rips в форум Азиатское кино | DVD и HD Video

BZzz
 

BZzz

Пол: Пол:Муж

Стаж: 5 лет 1 месяц

Сообщений: 3647

Россия
Рейтинг

post 22-Сен-2015 11:41 (спустя 19 часов) [-]0[+]

[Цитировать] 

Inkvizitron
 !  BZzz:
*Укажите действительное качество видео в шапке и самой теме.
*Субтитры указаны не все.
*Скриншоты должны быть в формате PNG.
*Добавьте русскоязычные имена актёров.

_________________
info [Профиль]  [ЛС] 

Inkvizitron

Пол: Пол:Муж

Стаж: 1 год 3 месяца

Сообщений: 11

Россия
Рейтинг

post 22-Сен-2015 22:26 (спустя 10 часов) [-]0[+]

[Цитировать] 

Поправил всё kolob_103
info [Профиль]  [ЛС] 

K.A.I.N.

Пол: Пол:Муж

Стаж: 7 лет 4 месяца

Сообщений: 292

Украина
Рейтинг

post 23-Сен-2015 02:59 (спустя 4 часа) [-]-2[+]

[Цитировать] 

Inkvizitron писал(а):

Мой путь / Mai wei
Корейский, это такой исковерканный английский? kolob_166
info [Профиль]  [ЛС] 

Rafle

Пол: Пол:Муж

Стаж: 5 лет 5 месяцев

Сообщений: 68

Россия
Рейтинг

post 23-Сен-2015 12:07 (спустя 9 часов) [-]-1[+]

[Цитировать] 

K.A.I.N.
ты так думаешь? посмотири и трезво оценив скажи что лажа,а что шедевр...кино Джоли - жалкая подобия ,Корейского фильма...как и остальные плагиаты других режиссеров...
info [Профиль]  [ЛС] 

Inkvizitron

Пол: Пол:Муж

Стаж: 1 год 3 месяца

Сообщений: 11

Россия
Рейтинг

post 23-Сен-2015 12:58 (спустя 51 минута) [-]1[+]

[Цитировать] 

K.A.I.N. писал(а):

Inkvizitron писал(а):

Мой путь / Mai wei
Корейский, это такой исковерканный английский? kolob_166
Боюсь корейские иероглифы сложно прочитать будет, поэтому для упрощения написано английскими буквами Улыбаюсь
info [Профиль]  [ЛС] 
Показать сообщения:    
Ответить на тему

Текущее время: 04-Дек 05:56

Часовой пояс: GMT + 4



Вы не можете начинать темы
Вы не можете отвечать на сообщения
Вы не можете редактировать свои сообщения
Вы не можете удалять свои сообщения
Вы не можете голосовать в опросах
Вы не можете прикреплять файлы к сообщениям
Вы не можете скачивать файлы