Ошибка

Григорий Сковорода (Иван Кавалеридзе) [1959 г., Драма, биографический, SATRip]

Ответить на тему
 
Автор Сообщение

Kotleopold

Пол: Пол:Муж

Стаж: 4 года 11 месяцев

Сообщений: 194

СССР
Рейтинг

post 20-Сен-2015 19:15 0[+]

[Цитировать] 

Григорий Сковорода

Год выпуска: 1959
Страна: СССР
Жанр: Драма, биографический
Продолжительность: 01:28:35

Режиссёр: Иван Кавалеридзе

В ролях: Александр Гай, Николай Козленко, Таисия Литвиненко, Юрий Сарычев, Юрий Лавров, Георгий Бабенко, Всеволод Быковец, Борис Карлаш-Вербицкий, Яков Козлов, Ян Козлов, Анатолий Моторный, Анна Николаева, Николай Пишванов, Иван Ужвий, Витольд Янпавлис

Описание:
Фильм о жизни выдающегося украинского философа, поэта, гуманиста, демократа и просветителя Григория Сковороды (1722-1794).



Качество: SATRip
Формат: AVI
Видео кодек: XviD
Аудио кодек: MP3
Видео: 672x512 (1.31:1), 25 fps, XviD MPEG-4 ~1798 kbps avg, 0.21 bit/pixel
Аудио: 48 kHz, MPEG Layer 3, 2 ch, ~128.00 kbps avg


General
Complete name : U:\Тапочки\Григорий Сковорода (1959).avi
Format : AVI
Format/Info : Audio Video Interleave
File size : 1.20 GiB
Duration : 1h 28mn
Overall bit rate : 1 936 Kbps
Director : SATrip by Animat (fenixclub.com)
Writing application : VirtualDubMod 1.5.10.2 (build 2540/release)
Writing library : VirtualDubMod build 2540/release
Video #0
ID : 0
Format : MPEG-4 Visual
Format profile : AdvancedSimple@L5
Format settings, BVOP : Yes
Format settings, QPel : No
Format settings, GMC : No warppoints
Format settings, Matrix : Default (MPEG)
Muxing mode : Packed bitstream
Codec ID : XVID
Codec ID/Hint : XviD
Duration : 1h 28mn
Bit rate : 1 798 Kbps
Width : 672 pixels
Height : 512 pixels
Display aspect ratio : 4:3
Frame rate : 25.000 fps
Resolution : 24 bits
Colorimetry : 4:2:0
Scan type : Progressive
Bits/(Pixel*Frame) : 0.209
Stream size : 1.11 GiB (93%)
Writing library : XviD 1.1.2 (UTC 2006-11-01)
Audio #1
ID : 1
Format : MPEG Audio
Format version : Version 1
Format profile : Layer 3
Codec ID : 55
Codec ID/Hint : MP3
Duration : 1h 28mn
Bit rate mode : Constant
Bit rate : 128 Kbps
Channel(s) : 2 channels
Sampling rate : 48.0 KHz
Resolution : 16 bits
Stream size : 81.1 MiB (7%)
Alignment : Aligned on interleaves
Interleave, duration : 40 ms (1.00 video frame)
Interleave, preload duration : 504 ms

info [Профиль]  [ЛС] 

post 20-Сен-2015 20:54 (спустя 1 час 39 минут) [-]0[+]

Топик был перенесен из форума Анонсы в форум Советское кино (Rips)

koss555
 
Показать сообщения:    
Ответить на тему

Текущее время: 06-Дек 23:56

Часовой пояс: GMT + 4



Вы не можете начинать темы
Вы не можете отвечать на сообщения
Вы не можете редактировать свои сообщения
Вы не можете удалять свои сообщения
Вы не можете голосовать в опросах
Вы не можете прикреплять файлы к сообщениям
Вы не можете скачивать файлы