Ошибка

Проект «Альфа» (Евгений Шерстобитов) [1990 г., Боевик, DVDRip]

Ответить на тему
 
Автор Сообщение

Kotleopold

Пол: Пол:Муж

Стаж: 4 года 11 месяцев

Сообщений: 194

СССР
Рейтинг

post 18-Сен-2015 22:45 0[+]

[Цитировать] 

Проект «Альфа»




Год: 1990
Страна: СССР
Жанр: Боевик
Продолжительность: 01:25:03

Режиссёр: Евгений Шерстобитов

Актёры: Юрий Маляров, Светлана Дирина, Софья Горшкова, Борис Руднев, Георгий Дворников, Анатолий Ведёнкин, Николай Малашенко, Али Самедов, Александр Жуковин, Анатолий Голик, Анатолий Лукьяненко, Виктор Чеботарёв
ВМС НАТО тщательно подготовило секретную разведывательную операцию в советских территориальных водах...

Командир пограничного катера капитан-лейтенант Чайка обнаруживает установленный натовскими спецслужбами радиобуй, содержащий секретную информацию стратегического назначения. При попытке задержания вертолёта, пытающегося его забрать, экипаж пограничного катера подвергается воздушной ракетной атаке, из которой моряки-пограничники выходят победителями. Но вражеским разведслужбам нужен радиобуй. Любой ценой.

Пограничники вступают в неравный поединок с фрегатом ВМС НАТО...
Качество: DVDRip
Формат: AVI
Видео кодек: XviD
Аудио кодек: AC3
Видео: 672x512 (1.31:1), 25 fps, XviD build 46, 1909 kbps avg, 0.22 bit/pixel
Аудио: 48 kHz, AC3 Dolby Digital, 3/2 (L,C,R,l,r) + LFE ch, 384.00 kbps avg
Дополнительно:
Фильм снят на основе реальных событий.

General
Complete name : U:\Тапочки\Проект «Альфа» (1990).avi
Format : AVI
Format/Info : Audio Video Interleave
File size : 1.37 GiB
Duration : 1h 25mn
Overall bit rate : 2 304 Kbps
Writing application : VirtualDubMod 1.5.10.2 (build 2540/release)
Writing library : VirtualDubMod build 2540/release
Video #0
ID : 0
Format : MPEG-4 Visual
Format profile : AdvancedSimple@L5
Format settings, BVOP : Yes
Format settings, QPel : No
Format settings, GMC : No warppoints
Format settings, Matrix : Default (MPEG)
Codec ID : XVID
Codec ID/Hint : XviD
Duration : 1h 25mn
Bit rate : 1 910 Kbps
Width : 672 pixels
Height : 512 pixels
Display aspect ratio : 4:3
Frame rate : 25.000 fps
Resolution : 24 bits
Colorimetry : 4:2:0
Scan type : Progressive
Bits/(Pixel*Frame) : 0.222
Stream size : 1.13 GiB (83%)
Writing library : XviD 1.1.2 (UTC 2006-11-01)
Audio #1
ID : 1
Format : AC-3
Format/Info : Audio Coding 3
Codec ID : 2000
Duration : 1h 25mn
Bit rate mode : Constant
Bit rate : 384 Kbps
Channel(s) : 6 channels
Channel positions : Front: L C R, Surround: L R, LFE
Sampling rate : 48.0 KHz
Video delay : 50ms
Stream size : 234 MiB (17%)
Alignment : Split accross interleaves
Interleave, duration : 40 ms (1.00 video frame)
Interleave, preload duration : 500 ms

info [Профиль]  [ЛС] 

L

Пол: Пол:Муж

Стаж: 6 лет 8 месяцев

Сообщений: 10835

Украина
Рейтинг

post 19-Сен-2015 09:53 (спустя 11 часов) [-]-2[+]

[Цитировать] 

Скриншоты должны быть в PNG
Добавьте сэмпл.

_________________
info [Профиль]  [ЛС] 

post 20-Сен-2015 13:15 (спустя 1 день 3 часа) [-]0[+]

Топик был перенесен из форума Анонсы в форум Советское кино (Rips)

L
 

Ahuramazda

Пол: Пол:Муж

Стаж: 3 года 7 месяцев

Сообщений: 68

Буркина Фасо
Рейтинг

post 20-Сен-2015 14:20 (спустя 1 день 4 часа) [-]-1[+]

[Цитировать] 

Что за волна пошла? Ольгинские торренты осваивают?
info [Профиль]  [ЛС] 

Kotleopold

Пол: Пол:Муж

Стаж: 4 года 11 месяцев

Сообщений: 194

СССР
Рейтинг

post 20-Сен-2015 15:15 (спустя 55 минут) [-]1[+]

[Цитировать] 

Ahuramazda писал(а):

Что за волна пошла? Ольгинские торренты осваивают?
А что такое ольгинские торренты? bw

_________________
Чистые лапы, горячее сердце, холодная голова и пушистый хвост!!!
info [Профиль]  [ЛС] 

Tuuari

Стаж: 7 лет 8 месяцев

Сообщений: 817

Рейтинг

post 20-Сен-2015 17:36 (спустя 2 часа 21 минута) [-]0[+]

[Цитировать] 

Ahuramazda писал(а):

Что за волна пошла? Ольгинские торренты осваивают?
Я думаю, что релизер иного поколения, нежели 90% публики местной, и совсем далек от политики, настолько, что он даже не понимает ваших подколок.
Посмотрите леопольдовские релизы и сами всё поймете.

_________________
Arbeit macht frei
info [Профиль]  [ЛС] 

Kotleopold

Пол: Пол:Муж

Стаж: 4 года 11 месяцев

Сообщений: 194

СССР
Рейтинг

post 20-Сен-2015 19:02 (спустя 1 час 25 минут) [-]2[+]

[Цитировать] 

Tuuari
А, это типа кино времён княгини Ольги? kolob_107 Ну, это дело такое - от политики я действительно «очень далёк»... kolob_134

_________________
Чистые лапы, горячее сердце, холодная голова и пушистый хвост!!!
info [Профиль]  [ЛС] 
Показать сообщения:    
Ответить на тему

Текущее время: 09-Дек 13:45

Часовой пояс: GMT + 4



Вы не можете начинать темы
Вы не можете отвечать на сообщения
Вы не можете редактировать свои сообщения
Вы не можете удалять свои сообщения
Вы не можете голосовать в опросах
Вы не можете прикреплять файлы к сообщениям
Вы не можете скачивать файлы