Ошибка
Загрузка...

Тревожный месяц вересень (Леонид Осыка) [1976 г., Военный боевик, DVDRip]

Ответить на тему
 
Автор Сообщение

Kotleopold

Пол: Пол:Муж

Стаж: 5 лет 8 месяцев

Сообщений: 195

СССР
Рейтинг

post 13-Сен-2015 23:26 0[+]

[Цитировать] 

Тревожный месяц вересень

Год выпуска: 1976
Страна: СССР, к/с им. А. Довженко
Жанр: Военный боевик
Продолжительность: 01:29:32

Режиссёр: Леонид Осыка

В ролях: Борислав Брондуков, Сергей Иванов, Иван Миколайчук, Иван Гаврилюк, Виктор Фокин, А. Лефтий, И. Бунина, Ф. Панасенко, А. Ян, В. Алексеенко, С. Станюта, Ф. Одиноков
Украинское Полесье, село Глухари, сентябрь 1944 года...

Фашисты отступили, но война ещё продолжается - вовсю свирепствует террор бандеровских банд... Враг обнаруживает себя то подожжёнными в селе хатами, то убийствами, то внезапными перекличками в лесу...

В это тревожное осеннее время после тяжёлого ранения на фронте возвращается в родное село молодой солдат Иван Капелюх, назначенный руководителем истребительного отряда «ястребков». Он начинает яростную борьбу против банды местного преступного авторитета, бывшего полицая Горелова. Постепенно к нему присоединяется всё село...
Качество: DVDRip
Формат: AVI
Видео кодек: DivX
Аудио кодек: AC3
Видео: DivX; 640x480 (1.33:1); 25.000 fps; 1733 kbps; 0.226 bits/pixel
Аудио: AC3; 48000 Hz; 448 kbps; 6 ch

General
Complete name : U:\Тапочки\Тревожный месяц вересень (1976).avi
Format : AVI
Format/Info : Audio Video Interleave
File size : 1.37 GiB
Duration : 1h 29mn
Overall bit rate : 2 188 Kbps
Writing application : VirtualDubMod 1.5.10.2 (build 2540/release)
Writing library : VirtualDub build 30009/release
Video #0
ID : 0
Format : MPEG-4 Visual
Format settings, BVOP : Yes
Format settings, QPel : No
Format settings, GMC : No warppoints
Format settings, Matrix : Default (H.263)
Muxing mode : Packed bitstream
Codec ID : DX50
Codec ID/Hint : DivX 5
Duration : 1h 29mn
Bit rate : 1 730 Kbps
Width : 640 pixels
Height : 480 pixels
Display aspect ratio : 4:3
Frame rate : 25.000 fps
Resolution : 24 bits
Colorimetry : 4:2:0
Scan type : Progressive
Bits/(Pixel*Frame) : 0.225
Stream size : 1.08 GiB (79%)
Writing library : DivX 6.8.5
Audio #1
ID : 1
Format : AC-3
Format/Info : Audio Coding 3
Codec ID : 2000
Duration : 1h 29mn
Bit rate mode : Constant
Bit rate : 448 Kbps
Channel(s) : 6 channels
Channel positions : Front: L C R, Surround: L R, LFE
Sampling rate : 48.0 KHz
Stream size : 287 MiB (20%)
Alignment : Aligned on interleaves
Interleave, duration : 40 ms (1.00 video frame)
Interleave, preload duration : 512 ms

info [Профиль]  [ЛС] 

post 14-Сен-2015 07:19 (спустя 7 часов) [-]0[+]

Топик был перенесен из форума Анонсы в форум Советское кино (Rips)

L
 
Показать сообщения:    
Ответить на тему

Текущее время: 21-Сен 16:32

Часовой пояс: GMT + 4



Вы не можете начинать темы
Вы не можете отвечать на сообщения
Вы не можете редактировать свои сообщения
Вы не можете удалять свои сообщения
Вы не можете голосовать в опросах
Вы не можете прикреплять файлы к сообщениям
Вы не можете скачивать файлы