Ошибка

Это было в Донбассе (Леонид Луков) [1945 г., Драма, DVDRip]

Тема закрыта
 
Автор Сообщение

Kotleopold

Пол: Пол:Муж

Стаж: 4 года 11 месяцев

Сообщений: 194

СССР
Рейтинг

post 13-Сен-2015 23:23 0[+]

[Цитировать] 

Это было в Донбассе

Год выпуска: 1945
Страна: СССР, «Союздетфильм»
Жанр: Драма
Продолжительность: 01:36:33

Режиссёр: Леонид Луков

В ролях: Татьяна Окуневская, Елена Тяпкина, Вера Алтайская, Елена Измайлова, Зоя Жукова, Иван Пельтцер, Владимир Колчин, Борис Пославский, Владимир Балашов, Вячеслав Дугин, Иван Переверзев, Анатолий Елисеев, Самуил Дитлович, Генрих Грайф, Константин Карельских
Фильм рассказывает о героической советской молодёжи, бесстрашно сражавшейся в годы Великой Отечественной войны с фашистскими захватчиками в оккупированном немцами Донбассе.
Качество: DVDRip
Формат: AVI
Видео кодек: XviD
Аудио кодек: AC3
Видео: 688x528 (1.30:1), 25 fps, XviD build 73 ~1980 kbps avg, 0.22 bit/pixel
Аудио: 48 kHz, AC3 Dolby Digital, 1/0 (C) ch, ~192 kbps

General
Complete name : U:\Тапочки\Это было в Донбассе (1945).avi
Format : AVI
Format/Info : Audio Video Interleave
File size : 1.47 GiB
Duration : 1h 36mn
Overall bit rate : 2 183 Kbps
Writing application : VirtualDubMod 1.5.10.3 | www.virtualdub-fr.org || (build 2550/release)
Writing library : VirtualDubMod build 2550/release
Video #0
ID : 0
Format : MPEG-4 Visual
Format profile : AdvancedSimple@L5
Format settings, BVOP : Yes
Format settings, QPel : No
Format settings, GMC : No warppoints
Format settings, Matrix : Custom
Codec ID : XVID
Codec ID/Hint : XviD
Duration : 1h 36mn
Bit rate : 1 981 Kbps
Width : 688 pixels
Height : 528 pixels
Display aspect ratio : 4:3
Frame rate : 25.000 fps
Resolution : 24 bits
Colorimetry : 4:2:0
Scan type : Progressive
Bits/(Pixel*Frame) : 0.218
Stream size : 1.34 GiB (91%)
Writing library : XviD 73
Audio #1
ID : 1
Format : AC-3
Format/Info : Audio Coding 3
Codec ID : 2000
Duration : 1h 36mn
Bit rate mode : Constant
Bit rate : 192 Kbps
Channel(s) : 1 channel
Channel positions : C
Sampling rate : 48.0 KHz
Stream size : 133 MiB (9%)
Alignment : Split accross interleaves
Interleave, duration : 40 ms (1.00 video frame)
Interleave, preload duration : 500 ms

info [Профиль]  [ЛС] 

post 14-Сен-2015 07:21 (спустя 7 часов) [-]0[+]

Топик был перенесен из форума Анонсы в форум Советское кино (Rips)

L
 

kish007

Пол: Пол:Муж

Стаж: 6 лет 1 месяц

Сообщений: 123

Украина
Рейтинг

post 14-Сен-2015 07:40 (спустя 8 часов) [-]-1[+]

[Цитировать] 

рейтинг кп не радует
info [Профиль]  [ЛС] 

Kotleopold

Пол: Пол:Муж

Стаж: 4 года 11 месяцев

Сообщений: 194

СССР
Рейтинг

post 14-Сен-2015 08:50 (спустя 1 час 10 минут) [-]-4[+]

[Цитировать] 

kish007 писал(а):

рейтинг кп не радует
Рейтинг - не главное. kolob_103

_________________
Чистые лапы, горячее сердце, холодная голова и пушистый хвост!!!
info [Профиль]  [ЛС] 

Montgomery

Пол: Пол:Муж

Стаж: 4 года

Сообщений: 706

Россия
Рейтинг

post 14-Сен-2015 09:11 (спустя 20 минут) [-]0[+]

[Цитировать] 

Спасибо, отличный фильм.
info [Профиль]  [ЛС] 

alexander465

Пол: Пол:Муж

Стаж: 6 лет 9 месяцев

Сообщений: 23

Рейтинг

post 14-Сен-2015 14:49 (спустя 5 часов) [-]4[+]

[Цитировать] 

Буду следить за комментариями.. kolob_166 kolob_166 kolob_166

_________________
info [Профиль]  [ЛС] 

GM4n

Пол: Пол:Муж

Стаж: 6 лет 11 месяцев

Сообщений: 51

Рейтинг

post 14-Сен-2015 14:59 (спустя 9 минут) [-]2[+]

[Цитировать] 

alexander465 писал(а):

Буду следить за комментариями.. kolob_166 kolob_166 kolob_166
тоже интересно, что скажут kolob_107
info [Профиль]  [ЛС] 

docklan

Пол: Пол:Муж

Стаж: 2 года 11 месяцев

Сообщений: 118

Ирландия
Рейтинг

post 14-Сен-2015 15:19 (спустя 20 минут) [-]2[+]

[Цитировать] 

Сейчас начнется...

_________________
Quis custodiet ipsos custodes?
info [Профиль]  [ЛС] 

BZzz

Пол: Пол:Муж

Стаж: 5 лет 1 месяц

Сообщений: 3647

Россия
Рейтинг

post 14-Сен-2015 16:33 (спустя 1 час 13 минут) [-]11[+]

[Цитировать] 

Цитата:

Буду следить за комментариями.. kolob_166 kolob_166 kolob_166

Цитата:

тоже интересно, что скажут kolob_107

Цитата:

Сейчас начнется...

Цитата:

Это было в Донбассе
Что было в Донбассе, остается в Донбассе.

_________________
info [Профиль]  [ЛС] 
Показать сообщения:    
Тема закрыта

Текущее время: 03-Дек 19:43

Часовой пояс: GMT + 4



Вы не можете начинать темы
Вы не можете отвечать на сообщения
Вы не можете редактировать свои сообщения
Вы не можете удалять свои сообщения
Вы не можете голосовать в опросах
Вы не можете прикреплять файлы к сообщениям
Вы не можете скачивать файлы