Ошибка

Битва за Мён Рян / Myeong-ryang (Ким Хан Мин) [2014 г., приключения, военный, биография, HDTVRip]

Ответить на тему
 
Автор Сообщение

Inkvizitron

Пол: Пол:Муж

Стаж: 1 год 3 месяца

Сообщений: 11

Россия
Рейтинг

post 10-Сен-2015 17:33 0[+]

[Цитировать] 

Битва за Мён Рян / Myeong-ryang

Год выпуска: 2014
Страна: Корея Южная
Жанр: приключения, военный, биография
Продолжительность: 02:08:32
Перевод: любительский (одноголосый закадровый) (Green Tea)
Язык субтитров: отсутствуют

Режиссер:
  • Ким Хан Мин


В ролях:
Чхве Мин Сик, Рю Сын Рён, Чо Чжин Ун, Ким Мён Гон, Чин Гу, Ли Чун Хюн, Ким Тэ Хун, Zach Aguilar, Том Бауэр, Грег Чун

Описание: Фильм рассказывает об известной битве за Мён Рян, состоявшейся в 1597 году во время японского вторжения в Корею. Тогда культовому адмиралу Ли Сунсину удалось уничтожить 133 японских корабля имея флот всего в 13 кораблей.
Качество: HDTVRip
Формат: AVI
Видео кодек: XviD
Аудио кодек: AC3
Видео: ~ 1 882 kbps / Size : 720 x 304 / FrameRate(Frame/sec) : 23.98
Аудио: # 1: АС3, 2 ch, 192 kbps, 48 000 Hz - одноголосый закадровый - Green Tea
Аудио: # 2: АС3, 2 ch, 192 kbps, 48 000 Hz - оригинальный (English)
Общее
Полное имя : G:\Фильмы\Корейское кино\The.Admiral.Roaring.Currents.2014.P1.HDRip.2100Mb.avi
Формат : AVI
Формат/Информация : Audio Video Interleave
Профиль формата : OpenDML
Размер файла : 2,05 Гбайт
Продолжительность : 2 ч. 8 м.
Общий поток : 2283 Кбит/сек
Программа кодирования : VirtualDubMod 1.5.10.2 (build 2540/release)
Библиотека кодирования : VirtualDubMod build 2540/release

Видео
Идентификатор : 0
Формат : MPEG-4 Visual
Профиль формата : Advanced Simple@L5
Параметр BVOP формата : 2
Параметр QPel формата : Нет
Параметр GMC формата : Без точки перехода
Параметр матрицы формата : Default (MPEG)
Идентификатор кодека : XVID
Идентификатор кодека/Подсказка : XviD
Продолжительность : 2 ч. 8 м.
Битрейт : 1882 Кбит/сек
Ширина : 720 пикселей
Высота : 304 пикселя
Соотношение сторон : 2,35:1
Частота кадров : 23,976 кадра/сек
Цветовое пространство : YUV
Субдискретизация насыщенности : 4:2:0
Битовая глубина : 8 бит
Тип развёртки : Прогрессивная
Метод сжатия : С потерями
Бит/(Пиксели*Кадры) : 0.359
Размер потока : 1,69 Гбайт (82%)
Библиотека кодирования : XviD 1.2.1 (UTC 2008-12-04)

Аудио #1
Идентификатор : 1
Формат : AC-3
Формат/Информация : Audio Coding 3
Расширение режима : CM (complete main)
Параметр Endianness формата : Big
Идентификатор кодека : 2000
Продолжительность : 2 ч. 8 м.
Вид битрейта : Постоянный
Битрейт : 192 Кбит/сек
Каналы : 2 канала
Расположение каналов : Front: L R
Частота : 48,0 КГц
Метод сжатия : С потерями
Размер потока : 176 Мбайт (8%)
Выравнивание : Разделение по промежуткам
Продолжительность промежутка : 42 мс. (1,00 видеокадр)
Время предзагрузки промежутка : 500 мс.

Аудио #2
Идентификатор : 2
Формат : AC-3
Формат/Информация : Audio Coding 3
Расширение режима : CM (complete main)
Параметр Endianness формата : Big
Идентификатор кодека : 2000
Продолжительность : 2 ч. 8 м.
Вид битрейта : Постоянный
Битрейт : 192 Кбит/сек
Каналы : 2 канала
Расположение каналов : Front: L R
Частота : 48,0 КГц
Метод сжатия : С потерями
Размер потока : 176 Мбайт (8%)
Выравнивание : Разделение по промежуткам
Продолжительность промежутка : 42 мс. (1,00 видеокадр)
Время предзагрузки промежутка : 500 мс.
info [Профиль]  [ЛС] 

L

Пол: Пол:Муж

Стаж: 6 лет 7 месяцев

Сообщений: 10804

Украина
Рейтинг

post 10-Сен-2015 23:19 (спустя 5 часов) [-]0[+]

[Цитировать] 

Актеров в строчку напишите, как везде.
Скриншоты должны быть в png
Добавьте отчет Медиаинфо
Добавьте сэмпл.
Где данные о размере кадра и фпс?

_________________
info [Профиль]  [ЛС] 

Inkvizitron

Пол: Пол:Муж

Стаж: 1 год 3 месяца

Сообщений: 11

Россия
Рейтинг

post 11-Сен-2015 21:45 (спустя 22 часа) [-]0[+]

[Цитировать] 

Всё подправил.
info [Профиль]  [ЛС] 

ДДТ

Пол: Пол:Муж

Стаж: 7 лет 1 месяц

Сообщений: 23

Рейтинг

post 12-Сен-2015 00:06 (спустя 2 часа 20 минут) [-]0[+]

[Цитировать] 

Вот спасибо! Давно хотел чего-нибудь военно-исторического глянуть!
info [Профиль]  [ЛС] 

tokiko

Пол: Пол:Муж

Стаж: 4 года 9 месяцев

Сообщений: 49

Россия
Рейтинг

post 12-Сен-2015 01:09 (спустя 1 час 3 минуты) [-]1[+]

[Цитировать] 

Фильм очень красочный и интересный, для любителей хороших исторических фильмов советую.

_________________
Кто к нам придет с мечем, того легче застрелить.
info [Профиль]  [ЛС] 

serega55

Пол: Пол:Муж

Стаж: 3 года 9 месяцев

Сообщений: 120

Предупреждений: 1

Россия
Рейтинг

post 12-Сен-2015 09:41 (спустя 8 часов) [-]-3[+]

[Цитировать] 

tokiko писал(а):

Фильм очень красочный и интересный, для любителей хороших исторических фильмов советую.
Добавь еще очень нудный фильм с кучей бравых азиатских ребят войнов -вообще что то невразумительное происходит на экране с суперкороблями 9Вар-шипс просто отдыхает) не верите скачай посмотрите да даже трейлера хватит А так Да на Любителя кино))
info [Профиль]  [ЛС] 

RoyTarg

Пол: Пол:Муж

Стаж: 4 года 1 месяц

Сообщений: 32

Россия
Рейтинг

post 12-Сен-2015 13:07 (спустя 3 часа) [-]0[+]

[Цитировать] 

Перевод: Любительский (двухголосый)

Аудио: # 1: АС3, 2 ch, 192 kbps, 48 000 Hz - одноголосый закадровый - Green Tea
ap

А фильм - эпик) азиаты любят такие снимать.

_________________
: ) : Намастэ!
info [Профиль]  [ЛС] 

Zigfrid_n

Пол: Пол:Муж

Стаж: 4 года 6 месяцев

Сообщений: 293

Предупреждений: 1

СССР
Рейтинг

post 12-Сен-2015 14:55 (спустя 1 час 48 минут) [-]0[+]

[Цитировать] 

Большая просьба, в следующий раз выкладывайте семпл, где больше одного слова перевода. Хотя бы три что ли. Ведь если это не официальный перевод, то по семплу его и оценивают.
info [Профиль]  [ЛС] 

darklos3r

Стаж: 7 лет 3 месяца

Сообщений: 37

Рейтинг

post 12-Сен-2015 16:16 (спустя 1 час 20 минут) [-]1[+]

[Цитировать] 

Zigfrid_n писал(а):

Большая просьба, в следующий раз выкладывайте семпл, где больше одного слова перевода. Хотя бы три что ли. Ведь если это не официальный перевод, то по семплу его и оценивают.
Озвучка одноголосая, потому что там нет женских реплик вообще... А диктор проф, так что дефектов речи опасаться не стоит)
info [Профиль]  [ЛС] 

Zigfrid_n

Пол: Пол:Муж

Стаж: 4 года 6 месяцев

Сообщений: 293

Предупреждений: 1

СССР
Рейтинг

post 12-Сен-2015 19:40 (спустя 3 часа) [-]0[+]

[Цитировать] 

darklos3r писал(а):

Zigfrid_n писал(а):

Большая просьба, в следующий раз выкладывайте семпл, где больше одного слова перевода. Хотя бы три что ли. Ведь если это не официальный перевод, то по семплу его и оценивают.
Озвучка одноголосая, потому что там нет женских реплик вообще... А диктор проф, так что дефектов речи опасаться не стоит)
Я не говорю про женские реплики. Просто одноголоски бывают разные, иные вовсе слушать невозможно.
info [Профиль]  [ЛС] 

Inkvizitron

Пол: Пол:Муж

Стаж: 1 год 3 месяца

Сообщений: 11

Россия
Рейтинг

post 12-Сен-2015 23:52 (спустя 4 часа) [-]4[+]

[Цитировать] 

Хорошо, учту, я даже както не задумался об этом=) спасибо за критику, первая раздача на Этом торренте, так что простите за косяки =)
info [Профиль]  [ЛС] 

Montgomery

Пол: Пол:Муж

Стаж: 4 года

Сообщений: 706

Россия
Рейтинг

post 13-Сен-2015 14:57 (спустя 15 часов) [-]0[+]

[Цитировать] 

Фильм отличный, исторический, смотрел на одном дыхании. Претензий к переводу нет, интонации актеров слышно, на атмосферности то что одноголоска никак не сказывается.
info [Профиль]  [ЛС] 
Показать сообщения:    
Ответить на тему

Текущее время: 06-Дек 20:06

Часовой пояс: GMT + 4



Вы не можете начинать темы
Вы не можете отвечать на сообщения
Вы не можете редактировать свои сообщения
Вы не можете удалять свои сообщения
Вы не можете голосовать в опросах
Вы не можете прикреплять файлы к сообщениям
Вы не можете скачивать файлы