Ошибка

До окончания фрилича осталось:


(Score) Робот по имени Чаппи / Chappie (by Hans Zimmer) - 2015, FLAC (tracks+.cue), lossless

Ответить на тему
 
Автор Сообщение

L

Пол: Пол:Муж

Стаж: 6 лет 8 месяцев

Сообщений: 10838

Украина
Рейтинг

post 31-Авг-2015 10:25 0[+]

[Цитировать] 

Робот по имени Чаппи / Chappie
Жанр: Score
Композитор: Hans Zimmer
Год выпуска диска: 2015
Производитель диска: Imprint Indie Printing, USA
Издатель (лейбл): Varèse Sarabande
Номер по каталогу: 302 064 225 2
Аудиокодек: FLAC (*.flac)
Тип рипа: tracks+.cue
Битрейт аудио: lossless
Продолжительность: 01:03:13
Источник: собственный рип
Наличие сканов в содержимом раздачи: да, 600 dpi
Ссылки: Кинопоиск | IMDB | Wikipedia | SoundtrackCollector
01. It's A Dangerous City [0:02:09.10]
02. The Only Way Out Of This [0:04:58.64]
03. Use Your Mind [0:04:04.73]
04. A Machine That Thinks And Feels [0:03:03.14]
05. Firmware Update [0:03:52.33]
06. Welcome To The Real World [0:03:52.38]
07. The Black Sheep [0:04:28.72]
08. Indestructible Robot Gangster #1 [0:03:11.11]
09. Breaking The Code [0:04:49.03]
10. Rudest Bad Boy In Joburg [0:02:41.29]
11. You Lied To Me [0:04:06.39]
12. Mayhem Downtown [0:03:57.07]
13. The Outside Is Temporary [0:03:09.10]
14. Never Break A Promise [0:07:43.68]
15. We Own This Sky [0:04:19.60]
16. Illest Gangsta On The Block [0:02:45.22]

Код:

Exact Audio Copy V1.0 beta 3 from 29. August 2011

EAC extraction logfile from 31. March 2015, 15:25

Hans Zimmer / Chappie

Used drive  : PLEXTOR CD-R   PX-230A   Adapter: 0  ID: 0

Read mode               : Secure
Utilize accurate stream : Yes
Defeat audio cache      : Yes
Make use of C2 pointers : No

Read offset correction                      : 738
Overread into Lead-In and Lead-Out          : No
Fill up missing offset samples with silence : Yes
Delete leading and trailing silent blocks   : No
Null samples used in CRC calculations       : Yes
Used interface                              : Native Win32 interface for Win NT & 2000
Gap handling                                : Appended to previous track

Used output format              : User Defined Encoder
Selected bitrate                : 1024 kBit/s
Quality                         : High
Add ID3 tag                     : No
Command line compressor         : C:\Program Files\Exact Audio Copy\Flac\flac.exe
Additional command line options : -6 -V -T "ARTIST=%artist%" -T "TITLE=%title%" -T "ALBUM=%albumtitle%" -T "DATE=%year%"
-T "TRACKNUMBER=%tracknr%" -T "GENRE=%genre%" -T "COMMENT=%comment%" -T "ALBUMARTIST=%albuminterpret%" -T "COMPOSER=%composer%"
-T "DISCNUMBER=%cdnumber%" -T "TOTALDISCS=%totalcds%" -T "TOTALTRACKS=%numtracks%" %source% -o %dest%

TOC of the extracted CD

     Track |   Start  |  Length  | Start sector | End sector
    ---------------------------------------------------------
        1  |  0:00.00 |  2:09.10 |         0    |     9684
        2  |  2:09.10 |  4:58.64 |      9685    |    32098
        3  |  7:07.74 |  4:04.73 |     32099    |    50471
        4  | 11:12.72 |  3:03.14 |     50472    |    64210
        5  | 14:16.11 |  3:52.33 |     64211    |    81643
        6  | 18:08.44 |  3:52.38 |     81644    |    99081
        7  | 22:01.07 |  4:28.72 |     99082    |   119253
        8  | 26:30.04 |  3:11.11 |    119254    |   133589
        9  | 29:41.15 |  4:49.03 |    133590    |   155267
       10  | 34:30.18 |  2:41.29 |    155268    |   167371
       11  | 37:11.47 |  4:06.39 |    167372    |   185860
       12  | 41:18.11 |  3:57.07 |    185861    |   203642
       13  | 45:15.18 |  3:09.10 |    203643    |   217827
       14  | 48:24.28 |  7:43.68 |    217828    |   252620
       15  | 56:08.21 |  4:19.60 |    252621    |   272105
       16  | 60:28.06 |  2:45.22 |    272106    |   284502

Track  1

     Filename C:\Music\01 - It's A Dangerous City.wav

     Pre-gap length  0:00:02.00

     Peak level 97.7 %
     Extraction speed 4.0 X
     Track quality 99.9 %
     Test CRC 780B9404
     Copy CRC 780B9404
     Track not present in AccurateRip database
     Copy OK

Track  2

     Filename C:\Music\02 - The Only Way Out Of This.wav

     Peak level 97.7 %
     Extraction speed 5.7 X
     Track quality 100.0 %
     Test CRC BBCCAF7A
     Copy CRC BBCCAF7A
     Track not present in AccurateRip database
     Copy OK

Track  3

     Filename C:\Music\03 - Use Your Mind.wav

     Peak level 97.7 %
     Extraction speed 5.6 X
     Track quality 100.0 %
     Test CRC E6F45F56
     Copy CRC E6F45F56
     Track not present in AccurateRip database
     Copy OK

Track  4

     Filename C:\Music\04 - A Machine That Thinks And Feels.wav

     Peak level 97.7 %
     Extraction speed 5.4 X
     Track quality 100.0 %
     Test CRC 5B0ECC66
     Copy CRC 5B0ECC66
     Track not present in AccurateRip database
     Copy OK

Track  5

     Filename C:\Music\05 - Firmware Update.wav

     Peak level 97.7 %
     Extraction speed 5.5 X
     Track quality 100.0 %
     Test CRC 9652760E
     Copy CRC 9652760E
     Track not present in AccurateRip database
     Copy OK

Track  6

     Filename C:\Music\06 - Welcome To The Real World.wav

     Peak level 97.7 %
     Extraction speed 5.5 X
     Track quality 100.0 %
     Test CRC FFA23D02
     Copy CRC FFA23D02
     Track not present in AccurateRip database
     Copy OK

Track  7

     Filename C:\Music\07 - The Black Sheep.wav

     Peak level 55.5 %
     Extraction speed 5.6 X
     Track quality 100.0 %
     Test CRC 460A09EA
     Copy CRC 460A09EA
     Track not present in AccurateRip database
     Copy OK

Track  8

     Filename C:\Music\08 - Indestructible Robot Gangster #1.wav

     Peak level 97.7 %
     Extraction speed 5.3 X
     Track quality 100.0 %
     Test CRC B7FBD4CF
     Copy CRC B7FBD4CF
     Track not present in AccurateRip database
     Copy OK

Track  9

     Filename C:\Music\09 - Breaking The Code.wav

     Peak level 97.7 %
     Extraction speed 5.6 X
     Track quality 100.0 %
     Test CRC 50282796
     Copy CRC 50282796
     Track not present in AccurateRip database
     Copy OK

Track 10

     Filename C:\Music\10 - Rudest Bad Boy In Joburg.wav

     Peak level 97.7 %
     Extraction speed 5.2 X
     Track quality 100.0 %
     Test CRC 66606F3E
     Copy CRC 66606F3E
     Track not present in AccurateRip database
     Copy OK

Track 11

     Filename C:\Music\11 - You Lied To Me.wav

     Peak level 97.7 %
     Extraction speed 5.5 X
     Track quality 100.0 %
     Test CRC 4B3EA811
     Copy CRC 4B3EA811
     Track not present in AccurateRip database
     Copy OK

Track 12

     Filename C:\Music\12 - Mayhem Downtown.wav

     Peak level 97.7 %
     Extraction speed 5.5 X
     Track quality 100.0 %
     Test CRC 5C3A8D6D
     Copy CRC 5C3A8D6D
     Track not present in AccurateRip database
     Copy OK

Track 13

     Filename C:\Music\13 - The Outside Is Temporary.wav

     Peak level 97.7 %
     Extraction speed 5.3 X
     Track quality 100.0 %
     Test CRC 4148A9BC
     Copy CRC 4148A9BC
     Track not present in AccurateRip database
     Copy OK

Track 14

     Filename C:\Music\14 - Never Break A Promise.wav

     Peak level 97.7 %
     Extraction speed 5.8 X
     Track quality 100.0 %
     Test CRC 39061B0D
     Copy CRC 39061B0D
     Track not present in AccurateRip database
     Copy OK

Track 15

     Filename C:\Music\15 - We Own This Sky.wav

     Peak level 97.7 %
     Extraction speed 5.6 X
     Track quality 100.0 %
     Test CRC 68304357
     Copy CRC 68304357
     Track not present in AccurateRip database
     Copy OK

Track 16

     Filename C:\Music\16 - Illest Gangsta On The Block.wav

     Peak level 97.7 %
     Extraction speed 4.8 X
     Track quality 100.0 %
     Test CRC AD94A1C5
     Copy CRC AD94A1C5
     Track not present in AccurateRip database
     Copy OK

None of the tracks are present in the AccurateRip database

No errors occurred

End of status report

==== Log checksum D2FF391E46A1BE8E943E1350D997136C29139DC4A087AAD50C5B9713E81DD7EC ====

Код:

REM GENRE Soundtrack
REM DATE 2015
REM DISCID D10ED110
REM COMMENT "ExactAudioCopy v1.0b3"
PERFORMER "Hans Zimmer"
TITLE "Chappie"
FILE "01 - It's A Dangerous City.wav" WAVE
  TRACK 01 AUDIO
    TITLE "It's A Dangerous City"
    PERFORMER "Hans Zimmer"
    INDEX 01 00:00:00
FILE "02 - The Only Way Out Of This.wav" WAVE
  TRACK 02 AUDIO
    TITLE "The Only Way Out Of This"
    PERFORMER "Hans Zimmer"
    INDEX 01 00:00:00
FILE "03 - Use Your Mind.wav" WAVE
  TRACK 03 AUDIO
    TITLE "Use Your Mind"
    PERFORMER "Hans Zimmer"
    INDEX 01 00:00:00
FILE "04 - A Machine That Thinks And Feels.wav" WAVE
  TRACK 04 AUDIO
    TITLE "A Machine That Thinks And Feels"
    PERFORMER "Hans Zimmer"
    INDEX 01 00:00:00
FILE "05 - Firmware Update.wav" WAVE
  TRACK 05 AUDIO
    TITLE "Firmware Update"
    PERFORMER "Hans Zimmer"
    INDEX 01 00:00:00
FILE "06 - Welcome To The Real World.wav" WAVE
  TRACK 06 AUDIO
    TITLE "Welcome To The Real World"
    PERFORMER "Hans Zimmer"
    INDEX 01 00:00:00
FILE "07 - The Black Sheep.wav" WAVE
  TRACK 07 AUDIO
    TITLE "The Black Sheep"
    PERFORMER "Hans Zimmer"
    INDEX 01 00:00:00
FILE "08 - Indestructible Robot Gangster #1.wav" WAVE
  TRACK 08 AUDIO
    TITLE "Indestructible Robot Gangster #1"
    PERFORMER "Hans Zimmer"
    INDEX 01 00:00:00
FILE "09 - Breaking The Code.wav" WAVE
  TRACK 09 AUDIO
    TITLE "Breaking The Code"
    PERFORMER "Hans Zimmer"
    INDEX 01 00:00:00
FILE "10 - Rudest Bad Boy In Joburg.wav" WAVE
  TRACK 10 AUDIO
    TITLE "Rudest Bad Boy In Joburg"
    PERFORMER "Hans Zimmer"
    INDEX 01 00:00:00
FILE "11 - You Lied To Me.wav" WAVE
  TRACK 11 AUDIO
    TITLE "You Lied To Me"
    PERFORMER "Hans Zimmer"
    INDEX 01 00:00:00
FILE "12 - Mayhem Downtown.wav" WAVE
  TRACK 12 AUDIO
    TITLE "Mayhem Downtown"
    PERFORMER "Hans Zimmer"
    INDEX 01 00:00:00
FILE "13 - The Outside Is Temporary.wav" WAVE
  TRACK 13 AUDIO
    TITLE "The Outside Is Temporary"
    PERFORMER "Hans Zimmer"
    INDEX 01 00:00:00
FILE "14 - Never Break A Promise.wav" WAVE
  TRACK 14 AUDIO
    TITLE "Never Break A Promise"
    PERFORMER "Hans Zimmer"
    INDEX 01 00:00:00
FILE "15 - We Own This Sky.wav" WAVE
  TRACK 15 AUDIO
    TITLE "We Own This Sky"
    PERFORMER "Hans Zimmer"
    INDEX 01 00:00:00
FILE "16 - Illest Gangsta On The Block.wav" WAVE
  TRACK 16 AUDIO
    TITLE "Illest Gangsta On The Block"
    PERFORMER "Hans Zimmer"
    INDEX 01 00:00:00
info [Профиль]  [ЛС] 
Показать сообщения:    
Ответить на тему

Текущее время: 09-Дек 23:30

Часовой пояс: GMT + 4



Вы не можете начинать темы
Вы не можете отвечать на сообщения
Вы не можете редактировать свои сообщения
Вы не можете удалять свои сообщения
Вы не можете голосовать в опросах
Вы не можете прикреплять файлы к сообщениям
Вы не можете скачивать файлы